(Atmospheric Black/Folk Metal) Gallowbraid - Ashen Eidolon - 2010, FLAC (tracks+.cue) lossless - Скачать

Жанр: Atmospheric Black/Folk Metal
Страна-производитель диска: Germany
Год издания диска: 2010
Издатель (лейбл): Northern Silence Productions
Номер по каталогу: -
Страна: USA
Аудио кодек: FLAC (*.flac)
Тип рипа: tracks+.cue
Битрейт аудио: lossless
Продолжительность: 31:41
Источник (релизер): What.cd (wittr)
Наличие сканов в содержимом раздачи: нет
Треклист:
1. Ashen Eidolon 14:38
2. Autumn I 04:23
3. Oaken Halls of Sorrow 11:23
4. Autumn II 01:18Доп. информация:
Written 2006-2007, recorded in Spring 2009.
Music by J. Rogers.
Mastered at Morningstar Studios.
Artwork and layout by N. Geybels/Depraved Designs.

rock, рок, metal, метал, трек, песни, soundtrack, lossless, альбом, скачать, бесплатно, музыка, download, mp3, torrent, высокое качество, cd, альбом, композиции, торрент, дискография

 Exact Audio Copy V0.99 prebeta 5 from 4. May 2009
EAC extraction logfile from 20. September 2010, 16:33
Gallowbraid / Ashen Eidolon
Used drive : Optiarc DVD RW AD-7173A Adapter: 0 ID: 0
Read mode : Secure
Utilize accurate stream : Yes
Defeat audio cache : Yes
Make use of C2 pointers : No
Read offset correction : 48
Overread into Lead-In and Lead-Out : No
Fill up missing offset samples with silence : Yes
Delete leading and trailing silent blocks : No
Null samples used in CRC calculations : Yes
Used interface : Installed external ASPI interface
Gap handling : Appended to previous track
Used output format : User Defined Encoder
Selected bitrate : 320 kBit/s
Quality : High
Add ID3 tag : No
Command line compressor : C:\Program Files\Exact Audio Copy\Flac\flac.exe
Additional command line options : -V -8 -T "artist=%a" -T "title=%t" -T "album=%g" -T "date=%y" -T "tracknumber=%n" -T "genre=%m" %s
TOC of the extracted CD
Track | Start | Length | Start sector | End sector
---------------------------------------------------------
1 | 0:00.00 | 14:38.11 | 0 | 65860
2 | 14:38.11 | 4:23.01 | 65861 | 85586
3 | 19:01.12 | 11:22.47 | 85587 | 136783
4 | 30:23.59 | 1:17.36 | 136784 | 142594
Track 1
Filename E:\ёггсбцб\Downloads\Gallowbraid - 2010 - Ashen Eidolon\01 - Ashen Eidolon.wav
Pre-gap length 0:00:02.00
Peak level 99.3 %
Track quality 100.0 %
Test CRC 615A4D7D
Copy CRC 615A4D7D
Track not present in AccurateRip database
Copy OK
Track 2
Filename E:\ёггсбцб\Downloads\Gallowbraid - 2010 - Ashen Eidolon\02 - Autumn I.wav
Peak level 97.0 %
Track quality 99.9 %
Test CRC 5548B621
Copy CRC 5548B621
Track not present in AccurateRip database
Copy OK
Track 3
Filename E:\ёггсбцб\Downloads\Gallowbraid - 2010 - Ashen Eidolon\03 - Oak and Aspen.wav
Peak level 99.9 %
Track quality 99.9 %
Test CRC ABCBDE71
Copy CRC ABCBDE71
Track not present in AccurateRip database
Copy OK
Track 4
Filename E:\ёггсбцб\Downloads\Gallowbraid - 2010 - Ashen Eidolon\04 - Autumn II.wav
Peak level 98.0 %
Track quality 100.0 %
Test CRC 80AA23D5
Copy CRC 80AA23D5
Track not present in AccurateRip database
Copy OK
None of the tracks are present in the AccurateRip database
No errors occurred
End of status report
 REM GENRE "Black Metal"
REM DATE 2010
REM DISCID 2B076D04
REM COMMENT "ExactAudioCopy v0.99pb5"
FILE "Gallowbraid - 2010 - Ashen Eidolon\01 - Ashen Eidolon.wav" WAVE
TRACK 01 AUDIO
FLAGS DCP
INDEX 01 00:00:00
FILE "Gallowbraid - 2010 - Ashen Eidolon\02 - Autumn I.wav" WAVE
TRACK 02 AUDIO
FLAGS DCP
INDEX 01 00:00:00
FILE "Gallowbraid - 2010 - Ashen Eidolon\03 - Oak and Aspen.wav" WAVE
TRACK 03 AUDIO
FLAGS DCP
INDEX 01 00:00:00
FILE "Gallowbraid - 2010 - Ashen Eidolon\04 - Autumn II.wav" WAVE
TRACK 04 AUDIO
FLAGS DCP
INDEX 01 00:00:00
Guitar, bass, flute, keys, and vocals performed by J. Rogers.
Additional vocals on "Ashen Eidolon" by A. Vance.
Lyrics by J. Rogers, P. O'Malley, and H. Glasheen.
Captured, engineered, produced, and mixed by J. Neblock.
Vocals captured and mixed by R. Hunter.
Preliminary mastering by R. Hunter.

[229 MB] Скачать / Download