(Atmospheric Black Metal/Ambient) Urfaust - Empty Space Meditation - 2016, FLAC (tracks+.cue), lossless - Скачать

Urfaust / Empty Space Meditation
Жанр: Atmospheric Black Metal/Ambient
Носитель: CD
Год издания: 2016
Издатель (лейбл): Ván Records
Номер по каталогу: VAN 201
Страна исполнителя (группы): Netherlands
Аудиокодек: FLAC (*.flac)
Тип рипа: tracks+.cue
Битрейт аудио: lossless
Продолжительность: 43:07
Источник (релизер): what
Наличие сканов в содержимом раздачи: нет
Треклист:
01. Meditatum I
02. Meditatum II
03. Meditatum III
04. Meditatum IV
05. Meditatum V
06. Meditatum VI

трек, бесплатно, mp3, метал, музыка, торрент, cd, torrent, песни, альбом, дискография, рок, rock, альбом, lossless, композиции, metal, download, soundtrack, высокое качество, скачать

 Exact Audio Copy V1.1 from 23. June 2015
EAC extraction logfile from 28. October 2016, 13:29
Urfaust / Empty Space Meditation
Used drive : hp DVDRAM GT31N Adapter: 1 ID: 0
Read mode : Secure
Utilize accurate stream : Yes
Defeat audio cache : Yes
Make use of C2 pointers : No
Read offset correction : 103
Overread into Lead-In and Lead-Out : No
Fill up missing offset samples with silence : Yes
Delete leading and trailing silent blocks : No
Null samples used in CRC calculations : Yes
Used interface : Native Win32 interface for Win NT & 2000
Gap handling : Appended to previous track
Used output format : User Defined Encoder
Selected bitrate : 1024 kBit/s
Quality : High
Add ID3 tag : No
Command line compressor : C:\Program Files\FLAC\win64\flac.exe
Additional command line options : -8 -e -V -T "ARTIST=%artist%" -T "TITLE=%title%" -T "ALBUM=%albumtitle%" -T "DATE=%year%" -T "TRACKNUMBER=%tracknr%" -T "GENRE=%genre%" -T "PERFORMER=%albuminterpret%" -T "COMPOSER=%composer%" %haslyrics%--tag-from-file=LYRICS="%lyricsfile%"%haslyrics% -T "ALBUMARTIST=%albumartist%" -T "DISCNUMBER=%cdnumber%" -T "TOTALDISCS=%totalcds%" -T "TOTALTRACKS=%numtracks%" -T "COMMENT=%comment%" %source% -o %dest%
TOC of the extracted CD
Track | Start | Length | Start sector | End sector
---------------------------------------------------------
1 | 0:00.00 | 5:03.39 | 0 | 22763
2 | 5:03.39 | 9:57.25 | 22764 | 67563
3 | 15:00.64 | 7:01.11 | 67564 | 99149
4 | 22:02.00 | 8:55.63 | 99150 | 139337
5 | 30:57.63 | 4:56.12 | 139338 | 161549
6 | 35:54.00 | 7:13.00 | 161550 | 194024
Track 1
Filename C:\Urfaust - Empty Space Meditation (2016) [FLAC]\01 Meditatum I.wav
Pre-gap length 0:00:02.00
Peak level 54.7 %
Extraction speed 1.3 X
Track quality 100.0 %
Test CRC 18283483
Copy CRC 18283483
Track not present in AccurateRip database
Copy OK
Track 2
Filename C:\Urfaust - Empty Space Meditation (2016) [FLAC]\02 Meditatum II.wav
Peak level 97.3 %
Extraction speed 1.6 X
Track quality 100.0 %
Test CRC 15B1AA6F
Copy CRC 15B1AA6F
Track not present in AccurateRip database
Copy OK
Track 3
Filename C:\Urfaust - Empty Space Meditation (2016) [FLAC]\03 Meditatum III.wav
Peak level 98.2 %
Extraction speed 1.8 X
Track quality 100.0 %
Test CRC 431C4492
Copy CRC 431C4492
Track not present in AccurateRip database
Copy OK
Track 4
Filename C:\Urfaust - Empty Space Meditation (2016) [FLAC]\04 Meditatum IV.wav
Peak level 98.9 %
Extraction speed 1.9 X
Track quality 99.9 %
Test CRC 0222D639
Copy CRC 0222D639
Track not present in AccurateRip database
Copy OK
Track 5
Filename C:\Urfaust - Empty Space Meditation (2016) [FLAC]\05 Meditatum V.wav
Peak level 97.4 %
Extraction speed 1.8 X
Track quality 99.9 %
Test CRC 6105B605
Copy CRC 6105B605
Track not present in AccurateRip database
Copy OK
Track 6
Filename C:\Urfaust - Empty Space Meditation (2016) [FLAC]\06 Meditatum VI.wav
Peak level 97.5 %
Extraction speed 2.2 X
Track quality 100.0 %
Test CRC 840990CD
Copy CRC 840990CD
Track not present in AccurateRip database
Copy OK
None of the tracks are present in the AccurateRip database
No errors occurred
End of status report
---- CUETools DB Plugin V2.1.6
[CTDB TOCID: wRpJDVSPbLAksGr0lDE.IDH_FeM-] found
Submit result: wRpJDVSPbLAksGr0lDE.IDH_FeM- has been confirmed
Track | CTDB Status
1 | (3/3) Accurately ripped
2 | (3/3) Accurately ripped
3 | (3/3) Accurately ripped
4 | (3/3) Accurately ripped
5 | (3/3) Accurately ripped
6 | (3/3) Accurately ripped
==== Log checksum 0C5C72E74EC2FE05B974CEBAAEAEE3C3433C9DEEE50CBB53776D9D909CFDF449 ====
 REM DATE 2016
REM DISCID 440A1B06
REM COMMENT "ExactAudioCopy v1.1"
CATALOG 4250936520103
PERFORMER "Urfaust"
TITLE "Empty Space Meditation"
FILE "01 Meditatum I.wav" WAVE
TRACK 01 AUDIO
TITLE "Meditatum I"
PERFORMER "Urfaust"
ISRC DENI11600050
INDEX 01 00:00:00
FILE "02 Meditatum II.wav" WAVE
TRACK 02 AUDIO
TITLE "Meditatum II"
PERFORMER "Urfaust"
ISRC DENI11600051
INDEX 01 00:00:00
FILE "03 Meditatum III.wav" WAVE
TRACK 03 AUDIO
TITLE "Meditatum III"
PERFORMER "Urfaust"
ISRC DENI11600052
INDEX 01 00:00:00
FILE "04 Meditatum IV.wav" WAVE
TRACK 04 AUDIO
TITLE "Meditatum IV"
PERFORMER "Urfaust"
ISRC DENI11600053
INDEX 01 00:00:00
FILE "05 Meditatum V.wav" WAVE
TRACK 05 AUDIO
TITLE "Meditatum V"
PERFORMER "Urfaust"
ISRC DENI11600054
INDEX 01 00:00:00
FILE "06 Meditatum VI.wav" WAVE
TRACK 06 AUDIO
TITLE "Meditatum VI"
PERFORMER "Urfaust"
ISRC DENI11600055
INDEX 01 00:00:00

[260 MB] Скачать / Download