(Atmospheric Black Metal) Dzo-nga (Dzö-nga) - The Sachem's Tales - 2017, FLAC (image+.cue), lossless - Скачать

The Sachem's Tales

Жанр: Atmospheric Black Metal
Носитель: CD
Страна-производитель диска : Italy
Год издания: 2017
Издатель: Avantgarde Music
Номер по каталогу: AV318
Страна: United States (Boston, Massachusetts)
Аудиокодек: FLAC (*.flac)
Тип рипа: image+.cue
Битрейт аудио: lossless
Продолжительность: 00:42:51
Источник: Original CD
Наличие сканов: да

Треклист:
1. Midewiwin Lodge - 02:34 (instrumental)
2. To the Great Salt Water - 08:48
3. The Wolves Fell Quiet - 07:22
4. Halle Ravine - 04:04
5. Against the Northern Wind - 07:16
6. A Seventh Age of Fire - 09:22
7. The Witching Meadow - 03:25 (instrumental)

песни, торрент, бесплатно, download, музыка, скачать, рок, высокое качество, альбом, трек, композиции, альбом, метал, lossless, torrent, дискография, mp3, cd, soundtrack, metal, rock

 Exact Audio Copy V1.3 from 2. September 2016
Отчёт EAC об извлечении, выполненном 26. октября 2017, 14:25
Dzo-Nga / The Sachem's Tales
Дисковод: Optiarc DVD RW AD-7283S Adapter: 1 ID: 0
Режим чтения : Достоверность
Использование точного потока : Да
Отключение кэша аудио : Да
Использование указателей C2 : Нет
Коррекция смещения при чтении : 48
Способность читать области Lead-in и Lead-out : Нет
Заполнение пропущенных сэмплов тишиной : Да
Удаление блоков с тишиной в начале и конце : Нет
При вычислениях CRC использовались нулевые сэмплы : Да
Интерфейс : Встроенный Win32-интерфейс для Win NT/2000
Выходной формат : Пользовательский кодировщик
Выбранный битрейт : 1024 kBit/s
Качество : Высокий
Добавление ID3-тега : Нет
Утилита сжатия : C:\Program Files (x86)\Exact Audio Copy\Flac\flac.exe
Дополнительные параметры : -V -8 -T "Date=%year%" -T "Genre=%genre%" %source%
TOC извлечённого CD
Трек | Старт | Длительность | Начальный сектор | Конечный сектор
---------------------------------------------------------------------
1 | 0:00.00 | 2:34.45 | 0 | 11594
2 | 2:34.45 | 8:48.64 | 11595 | 51258
3 | 11:23.34 | 7:23.00 | 51259 | 84483
4 | 18:46.34 | 4:04.13 | 84484 | 102796
5 | 22:50.47 | 7:16.15 | 102797 | 135511
6 | 30:06.62 | 9:23.00 | 135512 | 177736
7 | 39:29.62 | 3:25.62 | 177737 | 193173
Характеристики диапазона извлечения и сообщения об ошибках
Выбранный диапазон
Имя файла D:\Yourson\-Morgul-\Dzo-Nga\2017 - The Sachem's Tales\Dzo-Nga - The Sachem's Tales.wav
Пиковый уровень 100.0 %
Скорость извлечения 3.8 X
Качество диапазона 99.9 %
CRC теста DCA0E2C0
CRC копии DCA0E2C0
Копирование... OK
Ошибок не произошло
AccurateRip: сводка
Трек 1 отсутствует в базе данных
Трек 2 отсутствует в базе данных
Трек 3 отсутствует в базе данных
Трек 4 отсутствует в базе данных
Трек 5 отсутствует в базе данных
Трек 6 отсутствует в базе данных
Трек 7 отсутствует в базе данных
Ни одного трека нет в базе AccurateRip
Конец отчёта
---- CUETools DB Plugin V2.1.6
[CTDB TOCID: HxKLzWpR.61NsAl80HZWp6FYBpw-] disk not present in database
Submit result: HxKLzWpR.61NsAl80HZWp6FYBpw- has been uploaded
==== Контрольная сумма отчёта 9A565EDDB6F06FF5CDFF4AEA493B52648DB28F8719B07987D6A16E6B32F9F5B9 ====
 AUDIOCHECKER v2.0 beta (build 457) - by Dester - [email protected]
~~~~~~~~~~~~~~~~~~~~~~~~~~~~~~~~~~
-=== DO NOT EDIT THIS FILE! ===-
Path: ...\2017 - The Sachem's Tales
1 -=- Dzo-Nga - The Sachem's Tales.flac -=- CDDA (100%)
21712356
Grushenka Ødegård - Vocals
Cryvas - Vocals, Guitars, Bass
Guests: Lilith Astaroth - Vocals (additional)Aaron Maloney - Drums

[333.6 MB] Скачать / Download