(Atmospheric Black Metal) Panopticon - 5 релизов, 2008-2010, FLAC (tracks+.cue) lossless - Скачать

Panopticon - 5 релизов Жанр: Atmospheric Black Metal
Год издания диска: 2008-2010
Издатель (лейбл): Flenser, Pagan Flames, Self-Release
Страна: США
Аудио кодек: FLAC (*.flac)
Тип рипа: tracks+.cue
Битрейт аудио: lossless
Продолжительность: 04:01:17
Источник (релизер): Waffles.fm
Треклист:

cd, soundtrack, дискография, бесплатно, lossless, песни, метал, торрент, metal, альбом, рок, mp3, скачать, композиции, альбом, download, высокое качество, rock, трек, torrent, музыка

01 Intro
02 Flag Burner, Torch Bearer
03 I, Hedonist
04 ...Speaking...
05 The Lay Of Grimnir
06 Archetype
07 Emma's Song
08 I.C.B.M. (Amebix Cover)
Отчeт EAC
Exact Audio Copy V0.99 prebeta 4 from 23. January 2008
EAC extraction logfile from 18. May 2009, 15:30
Panopticon / Panopticon
Used drive : TSSTcorpCDDVDW SH-S203B Adapter: 4 ID: 0
Read mode : Secure
Utilize accurate stream : Yes
Defeat audio cache : Yes
Make use of C2 pointers : No
Read offset correction : 6
Overread into Lead-In and Lead-Out : No
Fill up missing offset samples with silence : Yes
Delete leading and trailing silent blocks : No
Null samples used in CRC calculations : Yes
Used interface : Native Win32 interface for Win NT & 2000
Gap handling : Appended to previous track
Used output format : User Defined Encoder
Selected bitrate : 128 kBit/s
Quality : High
Add ID3 tag : No
Command line compressor : C:\Programs\foobar2000\util\flac.exe
Additional command line options : -V -8 -T "artist=%a" -T "title=%t" -T "album=%g" -T "date=%y" -T "tracknumber=%n" -T "genre=%m" %s
TOC of the extracted CD
Track | Start | Length | Start sector | End sector
---------------------------------------------------------
1 | 0:00.00 | 1:08.62 | 0 | 5161
2 | 1:08.62 | 10:40.31 | 5162 | 53192
3 | 11:49.18 | 15:08.24 | 53193 | 121316
4 | 26:57.42 | 12:51.35 | 121317 | 179176
5 | 39:49.02 | 13:05.50 | 179177 | 238101
6 | 52:54.52 | 8:00.64 | 238102 | 274165
7 | 60:55.41 | 6:38.07 | 274166 | 304022
8 | 67:33.48 | 8:22.27 | 304023 | 341699
Track 1
Filename C:\rip\Panopticon - Panopticon (2008)\01 Intro.wav
Pre-gap length 0:00:02.00
Peak level 99.3 %
Track quality 100.0 %
Test CRC 77C4C7EC
Copy CRC 77C4C7EC
Track not present in AccurateRip database
Copy OK
Track 2
Filename C:\rip\Panopticon - Panopticon (2008)\02 Flag Burner, Torch Bearer.wav
Peak level 98.9 %
Track quality 100.0 %
Test CRC 5990321B
Copy CRC 5990321B
Track not present in AccurateRip database
Copy OK
Track 3
Filename C:\rip\Panopticon - Panopticon (2008)\03 I, Hedonist.wav
Peak level 96.7 %
Track quality 100.0 %
Test CRC 762A184E
Copy CRC 762A184E
Track not present in AccurateRip database
Copy OK
Track 4
Filename C:\rip\Panopticon - Panopticon (2008)\04 ...Speaking....wav
Peak level 100.0 %
Track quality 100.0 %
Test CRC A4A921F2
Copy CRC A4A921F2
Track not present in AccurateRip database
Copy OK
Track 5
Filename C:\rip\Panopticon - Panopticon (2008)\05 The Lay Of Grimnir.wav
Peak level 100.0 %
Track quality 99.9 %
Test CRC 7BD64402
Copy CRC 7BD64402
Track not present in AccurateRip database
Copy OK
Track 6
Filename C:\rip\Panopticon - Panopticon (2008)\06 Archetype.wav
Peak level 100.0 %
Track quality 99.9 %
Test CRC 7182B6EC
Copy CRC 7182B6EC
Track not present in AccurateRip database
Copy OK
Track 7
Filename C:\rip\Panopticon - Panopticon (2008)\07 Emma's Song.wav
Peak level 100.0 %
Track quality 100.0 %
Test CRC 6C5440CB
Copy CRC 6C5440CB
Track not present in AccurateRip database
Copy OK
Track 8
Filename C:\rip\Panopticon - Panopticon (2008)\08 I.C.B.M. [Amebix Cover].wav
Peak level 100.0 %
Track quality 100.0 %
Test CRC 7EF71B9F
Copy CRC 7EF71B9F
Track not present in AccurateRip database
Copy OK
None of the tracks are present in the AccurateRip database
No errors occurred
End of status report
CUE
REM GENRE "Black Metal"
REM DATE 2008
REM DISCID 6611CC08
REM COMMENT "ExactAudioCopy v0.99pb4"
PERFORMER "Panopticon"
TITLE "Panopticon"
FILE "Panopticon - Panopticon (2008)\01 Intro.wav" WAVE
TRACK 01 AUDIO
TITLE "Intro"
PERFORMER "Panopticon"
INDEX 01 00:00:00
FILE "Panopticon - Panopticon (2008)\02 Flag Burner, Torch Bearer.wav" WAVE
TRACK 02 AUDIO
TITLE "Flag Burner, Torch Bearer"
PERFORMER "Panopticon"
INDEX 01 00:00:00
FILE "Panopticon - Panopticon (2008)\03 I, Hedonist.wav" WAVE
TRACK 03 AUDIO
TITLE "I, Hedonist"
PERFORMER "Panopticon"
INDEX 01 00:00:00
FILE "Panopticon - Panopticon (2008)\04 ...Speaking....wav" WAVE
TRACK 04 AUDIO
TITLE "...Speaking..."
PERFORMER "Panopticon"
INDEX 01 00:00:00
FILE "Panopticon - Panopticon (2008)\05 The Lay Of Grimnir.wav" WAVE
TRACK 05 AUDIO
TITLE "The Lay Of Grimnir"
PERFORMER "Panopticon"
INDEX 01 00:00:00
FILE "Panopticon - Panopticon (2008)\06 Archetype.wav" WAVE
TRACK 06 AUDIO
TITLE "Archetype"
PERFORMER "Panopticon"
INDEX 01 00:00:00
FILE "Panopticon - Panopticon (2008)\07 Emma's Song.wav" WAVE
TRACK 07 AUDIO
TITLE "Emma's Song"
PERFORMER "Panopticon"
INDEX 01 00:00:00
FILE "Panopticon - Panopticon (2008)\08 I.C.B.M. [Amebix Cover].wav" WAVE
TRACK 08 AUDIO
TITLE "I.C.B.M. [Amebix Cover]"
PERFORMER "Panopticon"
INDEX 01 00:00:00
Exact Audio Copy V0.99 prebeta 4 from 23. January 2008
EAC extraction logfile from 18. May 2009, 15:30
Panopticon / Panopticon
Used drive : TSSTcorpCDDVDW SH-S203B Adapter: 4 ID: 0
Read mode : Secure
Utilize accurate stream : Yes
Defeat audio cache : Yes
Make use of C2 pointers : No
Read offset correction : 6
Overread into Lead-In and Lead-Out : No
Fill up missing offset samples with silence : Yes
Delete leading and trailing silent blocks : No
Null samples used in CRC calculations : Yes
Used interface : Native Win32 interface for Win NT & 2000
Gap handling : Appended to previous track
Used output format : User Defined Encoder
Selected bitrate : 128 kBit/s
Quality : High
Add ID3 tag : No
Command line compressor : C:\Programs\foobar2000\util\flac.exe
Additional command line options : -V -8 -T "artist=%a" -T "title=%t" -T "album=%g" -T "date=%y" -T "tracknumber=%n" -T "genre=%m" %s
TOC of the extracted CD
Track | Start | Length | Start sector | End sector
---------------------------------------------------------
1 | 0:00.00 | 1:08.62 | 0 | 5161
2 | 1:08.62 | 10:40.31 | 5162 | 53192
3 | 11:49.18 | 15:08.24 | 53193 | 121316
4 | 26:57.42 | 12:51.35 | 121317 | 179176
5 | 39:49.02 | 13:05.50 | 179177 | 238101
6 | 52:54.52 | 8:00.64 | 238102 | 274165
7 | 60:55.41 | 6:38.07 | 274166 | 304022
8 | 67:33.48 | 8:22.27 | 304023 | 341699
Track 1
Filename C:\rip\Panopticon - Panopticon (2008)\01 Intro.wav
Pre-gap length 0:00:02.00
Peak level 99.3 %
Track quality 100.0 %
Test CRC 77C4C7EC
Copy CRC 77C4C7EC
Track not present in AccurateRip database
Copy OK
Track 2
Filename C:\rip\Panopticon - Panopticon (2008)\02 Flag Burner, Torch Bearer.wav
Peak level 98.9 %
Track quality 100.0 %
Test CRC 5990321B
Copy CRC 5990321B
Track not present in AccurateRip database
Copy OK
Track 3
Filename C:\rip\Panopticon - Panopticon (2008)\03 I, Hedonist.wav
Peak level 96.7 %
Track quality 100.0 %
Test CRC 762A184E
Copy CRC 762A184E
Track not present in AccurateRip database
Copy OK
Track 4
Filename C:\rip\Panopticon - Panopticon (2008)\04 ...Speaking....wav
Peak level 100.0 %
Track quality 100.0 %
Test CRC A4A921F2
Copy CRC A4A921F2
Track not present in AccurateRip database
Copy OK
Track 5
Filename C:\rip\Panopticon - Panopticon (2008)\05 The Lay Of Grimnir.wav
Peak level 100.0 %
Track quality 99.9 %
Test CRC 7BD64402
Copy CRC 7BD64402
Track not present in AccurateRip database
Copy OK
Track 6
Filename C:\rip\Panopticon - Panopticon (2008)\06 Archetype.wav
Peak level 100.0 %
Track quality 99.9 %
Test CRC 7182B6EC
Copy CRC 7182B6EC
Track not present in AccurateRip database
Copy OK
Track 7
Filename C:\rip\Panopticon - Panopticon (2008)\07 Emma's Song.wav
Peak level 100.0 %
Track quality 100.0 %
Test CRC 6C5440CB
Copy CRC 6C5440CB
Track not present in AccurateRip database
Copy OK
Track 8
Filename C:\rip\Panopticon - Panopticon (2008)\08 I.C.B.M. [Amebix Cover].wav
Peak level 100.0 %
Track quality 100.0 %
Test CRC 7EF71B9F
Copy CRC 7EF71B9F
Track not present in AccurateRip database
Copy OK
None of the tracks are present in the AccurateRip database
No errors occurred
End of status report
REM GENRE "Black Metal"
REM DATE 2008
REM DISCID 6611CC08
REM COMMENT "ExactAudioCopy v0.99pb4"
PERFORMER "Panopticon"
TITLE "Panopticon"
FILE "Panopticon - Panopticon (2008)\01 Intro.wav" WAVE
TRACK 01 AUDIO
TITLE "Intro"
PERFORMER "Panopticon"
INDEX 01 00:00:00
FILE "Panopticon - Panopticon (2008)\02 Flag Burner, Torch Bearer.wav" WAVE
TRACK 02 AUDIO
TITLE "Flag Burner, Torch Bearer"
PERFORMER "Panopticon"
INDEX 01 00:00:00
FILE "Panopticon - Panopticon (2008)\03 I, Hedonist.wav" WAVE
TRACK 03 AUDIO
TITLE "I, Hedonist"
PERFORMER "Panopticon"
INDEX 01 00:00:00
FILE "Panopticon - Panopticon (2008)\04 ...Speaking....wav" WAVE
TRACK 04 AUDIO
TITLE "...Speaking..."
PERFORMER "Panopticon"
INDEX 01 00:00:00
FILE "Panopticon - Panopticon (2008)\05 The Lay Of Grimnir.wav" WAVE
TRACK 05 AUDIO
TITLE "The Lay Of Grimnir"
PERFORMER "Panopticon"
INDEX 01 00:00:00
FILE "Panopticon - Panopticon (2008)\06 Archetype.wav" WAVE
TRACK 06 AUDIO
TITLE "Archetype"
PERFORMER "Panopticon"
INDEX 01 00:00:00
FILE "Panopticon - Panopticon (2008)\07 Emma's Song.wav" WAVE
TRACK 07 AUDIO
TITLE "Emma's Song"
PERFORMER "Panopticon"
INDEX 01 00:00:00
FILE "Panopticon - Panopticon (2008)\08 I.C.B.M. [Amebix Cover].wav" WAVE
TRACK 08 AUDIO
TITLE "I.C.B.M. [Amebix Cover]"
PERFORMER "Panopticon"
INDEX 01 00:00:00
01 Haunted America
02 La Passione Di Sacco & Vanzetti
03 Eternal In My Domain
04 Lake Of Blood (Live)
05 Eternal In My Domain (Live)
Отчeт EAC
Exact Audio Copy V0.99 prebeta 4 from 23. January 2008
EAC extraction logfile from 18. May 2009, 15:57
Panopticon & Lake Of Blood / Panopticon / Lake Of Blood Split
Used drive : TSSTcorpCDDVDW SH-S203B Adapter: 4 ID: 0
Read mode : Secure
Utilize accurate stream : Yes
Defeat audio cache : Yes
Make use of C2 pointers : No
Read offset correction : 6
Overread into Lead-In and Lead-Out : No
Fill up missing offset samples with silence : Yes
Delete leading and trailing silent blocks : No
Null samples used in CRC calculations : Yes
Used interface : Native Win32 interface for Win NT & 2000
Gap handling : Appended to previous track
Used output format : User Defined Encoder
Selected bitrate : 128 kBit/s
Quality : High
Add ID3 tag : No
Command line compressor : C:\Programs\foobar2000\util\flac.exe
Additional command line options : -V -8 -T "artist=%a" -T "title=%t" -T "album=%g" -T "date=%y" -T "tracknumber=%n" -T "genre=%m" %s
TOC of the extracted CD
Track | Start | Length | Start sector | End sector
---------------------------------------------------------
1 | 0:00.00 | 5:27.52 | 0 | 24576
2 | 5:27.52 | 11:37.19 | 24577 | 76870
3 | 17:04.71 | 3:49.17 | 76871 | 94062
4 | 20:54.13 | 5:41.05 | 94063 | 119642
5 | 26:35.18 | 3:36.06 | 119643 | 135848
Track 1
Filename C:\rip\Panopticon & Lake Of Blood - Panopticon , Lake Of Blood Split (2009)\01 Haunted America.wav
Pre-gap length 0:00:02.00
Peak level 94.3 %
Track quality 100.0 %
Test CRC 1FE05D0E
Copy CRC 1FE05D0E
Track not present in AccurateRip database
Copy OK
Track 2
Filename C:\rip\Panopticon & Lake Of Blood - Panopticon , Lake Of Blood Split (2009)\02 La Passione Di Sacco & Vanzetti.wav
Pre-gap length 0:00:05.85
Peak level 100.0 %
Track quality 100.0 %
Test CRC 7B132072
Copy CRC 7B132072
Track not present in AccurateRip database
Copy OK
Track 3
Filename C:\rip\Panopticon & Lake Of Blood - Panopticon , Lake Of Blood Split (2009)\03 Eternal In My Domain.wav
Pre-gap length 0:00:01.86
Peak level 100.0 %
Track quality 100.0 %
Test CRC 7655AD9D
Copy CRC 7655AD9D
Track not present in AccurateRip database
Copy OK
Track 4
Filename C:\rip\Panopticon & Lake Of Blood - Panopticon , Lake Of Blood Split (2009)\04 Lake Of Blood [Live].wav
Pre-gap length 0:00:05.78
Peak level 100.0 %
Track quality 100.0 %
Test CRC 7F1493AC
Copy CRC 7F1493AC
Track not present in AccurateRip database
Copy OK
Track 5
Filename C:\rip\Panopticon & Lake Of Blood - Panopticon , Lake Of Blood Split (2009)\05 Eternal In My Domain [Live].wav
Pre-gap length 0:00:03.05
Peak level 100.0 %
Track quality 100.0 %
Test CRC 2E4D0A3E
Copy CRC 2E4D0A3E
Track not present in AccurateRip database
Copy OK
None of the tracks are present in the AccurateRip database
No errors occurred
End of status report
CUE
REM GENRE "Black Metal"
REM DATE 2009
REM DISCID 3D071305
REM COMMENT "ExactAudioCopy v0.99pb4"
PERFORMER "Panopticon & Lake Of Blood "
TITLE "Panopticon / Lake Of Blood Split"
FILE "Panopticon & Lake Of Blood - Panopticon , Lake Of Blood Split (2009)\01 Haunted America.wav" WAVE
TRACK 01 AUDIO
TITLE "Haunted America"
PERFORMER "Panopticon & Lake Of Blood "
INDEX 01 00:00:00
TRACK 02 AUDIO
TITLE "La Passione Di Sacco & Vanzetti"
PERFORMER "Panopticon & Lake Of Blood "
INDEX 00 05:21:63
FILE "Panopticon & Lake Of Blood - Panopticon , Lake Of Blood Split (2009)\02 La Passione Di Sacco & Vanzetti.wav" WAVE
INDEX 01 00:00:00
TRACK 03 AUDIO
TITLE "Eternal In My Domain"
PERFORMER "Panopticon & Lake Of Blood "
INDEX 00 11:35:29
FILE "Panopticon & Lake Of Blood - Panopticon , Lake Of Blood Split (2009)\03 Eternal In My Domain.wav" WAVE
INDEX 01 00:00:00
TRACK 04 AUDIO
TITLE "Lake Of Blood [Live]"
PERFORMER "Panopticon & Lake Of Blood "
INDEX 00 03:43:33
FILE "Panopticon & Lake Of Blood - Panopticon , Lake Of Blood Split (2009)\04 Lake Of Blood [Live].wav" WAVE
INDEX 01 00:00:00
TRACK 05 AUDIO
TITLE "Eternal In My Domain [Live]"
PERFORMER "Panopticon & Lake Of Blood "
INDEX 00 05:38:01
FILE "Panopticon & Lake Of Blood - Panopticon , Lake Of Blood Split (2009)\05 Eternal In My Domain [Live].wav" WAVE
INDEX 01 00:00:00
Exact Audio Copy V0.99 prebeta 4 from 23. January 2008
EAC extraction logfile from 18. May 2009, 15:57
Panopticon & Lake Of Blood / Panopticon / Lake Of Blood Split
Used drive : TSSTcorpCDDVDW SH-S203B Adapter: 4 ID: 0
Read mode : Secure
Utilize accurate stream : Yes
Defeat audio cache : Yes
Make use of C2 pointers : No
Read offset correction : 6
Overread into Lead-In and Lead-Out : No
Fill up missing offset samples with silence : Yes
Delete leading and trailing silent blocks : No
Null samples used in CRC calculations : Yes
Used interface : Native Win32 interface for Win NT & 2000
Gap handling : Appended to previous track
Used output format : User Defined Encoder
Selected bitrate : 128 kBit/s
Quality : High
Add ID3 tag : No
Command line compressor : C:\Programs\foobar2000\util\flac.exe
Additional command line options : -V -8 -T "artist=%a" -T "title=%t" -T "album=%g" -T "date=%y" -T "tracknumber=%n" -T "genre=%m" %s
TOC of the extracted CD
Track | Start | Length | Start sector | End sector
---------------------------------------------------------
1 | 0:00.00 | 5:27.52 | 0 | 24576
2 | 5:27.52 | 11:37.19 | 24577 | 76870
3 | 17:04.71 | 3:49.17 | 76871 | 94062
4 | 20:54.13 | 5:41.05 | 94063 | 119642
5 | 26:35.18 | 3:36.06 | 119643 | 135848
Track 1
Filename C:\rip\Panopticon & Lake Of Blood - Panopticon , Lake Of Blood Split (2009)\01 Haunted America.wav
Pre-gap length 0:00:02.00
Peak level 94.3 %
Track quality 100.0 %
Test CRC 1FE05D0E
Copy CRC 1FE05D0E
Track not present in AccurateRip database
Copy OK
Track 2
Filename C:\rip\Panopticon & Lake Of Blood - Panopticon , Lake Of Blood Split (2009)\02 La Passione Di Sacco & Vanzetti.wav
Pre-gap length 0:00:05.85
Peak level 100.0 %
Track quality 100.0 %
Test CRC 7B132072
Copy CRC 7B132072
Track not present in AccurateRip database
Copy OK
Track 3
Filename C:\rip\Panopticon & Lake Of Blood - Panopticon , Lake Of Blood Split (2009)\03 Eternal In My Domain.wav
Pre-gap length 0:00:01.86
Peak level 100.0 %
Track quality 100.0 %
Test CRC 7655AD9D
Copy CRC 7655AD9D
Track not present in AccurateRip database
Copy OK
Track 4
Filename C:\rip\Panopticon & Lake Of Blood - Panopticon , Lake Of Blood Split (2009)\04 Lake Of Blood [Live].wav
Pre-gap length 0:00:05.78
Peak level 100.0 %
Track quality 100.0 %
Test CRC 7F1493AC
Copy CRC 7F1493AC
Track not present in AccurateRip database
Copy OK
Track 5
Filename C:\rip\Panopticon & Lake Of Blood - Panopticon , Lake Of Blood Split (2009)\05 Eternal In My Domain [Live].wav
Pre-gap length 0:00:03.05
Peak level 100.0 %
Track quality 100.0 %
Test CRC 2E4D0A3E
Copy CRC 2E4D0A3E
Track not present in AccurateRip database
Copy OK
None of the tracks are present in the AccurateRip database
No errors occurred
End of status report
REM GENRE "Black Metal"
REM DATE 2009
REM DISCID 3D071305
REM COMMENT "ExactAudioCopy v0.99pb4"
PERFORMER "Panopticon & Lake Of Blood "
TITLE "Panopticon / Lake Of Blood Split"
FILE "Panopticon & Lake Of Blood - Panopticon , Lake Of Blood Split (2009)\01 Haunted America.wav" WAVE
TRACK 01 AUDIO
TITLE "Haunted America"
PERFORMER "Panopticon & Lake Of Blood "
INDEX 01 00:00:00
TRACK 02 AUDIO
TITLE "La Passione Di Sacco & Vanzetti"
PERFORMER "Panopticon & Lake Of Blood "
INDEX 00 05:21:63
FILE "Panopticon & Lake Of Blood - Panopticon , Lake Of Blood Split (2009)\02 La Passione Di Sacco & Vanzetti.wav" WAVE
INDEX 01 00:00:00
TRACK 03 AUDIO
TITLE "Eternal In My Domain"
PERFORMER "Panopticon & Lake Of Blood "
INDEX 00 11:35:29
FILE "Panopticon & Lake Of Blood - Panopticon , Lake Of Blood Split (2009)\03 Eternal In My Domain.wav" WAVE
INDEX 01 00:00:00
TRACK 04 AUDIO
TITLE "Lake Of Blood [Live]"
PERFORMER "Panopticon & Lake Of Blood "
INDEX 00 03:43:33
FILE "Panopticon & Lake Of Blood - Panopticon , Lake Of Blood Split (2009)\04 Lake Of Blood [Live].wav" WAVE
INDEX 01 00:00:00
TRACK 05 AUDIO
TITLE "Eternal In My Domain [Live]"
PERFORMER "Panopticon & Lake Of Blood "
INDEX 00 05:38:01
FILE "Panopticon & Lake Of Blood - Panopticon , Lake Of Blood Split (2009)\05 Eternal In My Domain [Live].wav" WAVE
INDEX 01 00:00:00
01 ...Speaking... (Collapsed Version)
02 The Ghosts Of Haymarket Square
03 Beginning
04 White Light Rains Down On...
Отчeт EAC
Exact Audio Copy V0.99 prebeta 4 from 23. January 2008
EAC extraction logfile from 18. May 2009, 16:39
Panopticon & Wheels Within Wheels / Panopticon / Wheels Within Wheels
Used drive : TSSTcorpCDDVDW SH-S203B Adapter: 4 ID: 0
Read mode : Secure
Utilize accurate stream : Yes
Defeat audio cache : Yes
Make use of C2 pointers : No
Read offset correction : 6
Overread into Lead-In and Lead-Out : No
Fill up missing offset samples with silence : Yes
Delete leading and trailing silent blocks : No
Null samples used in CRC calculations : Yes
Used interface : Native Win32 interface for Win NT & 2000
Gap handling : Appended to previous track
Used output format : User Defined Encoder
Selected bitrate : 128 kBit/s
Quality : High
Add ID3 tag : No
Command line compressor : C:\Programs\foobar2000\util\flac.exe
Additional command line options : -V -8 -T "artist=%a" -T "title=%t" -T "album=%g" -T "date=%y" -T "tracknumber=%n" -T "genre=%m" %s
TOC of the extracted CD
Track | Start | Length | Start sector | End sector
---------------------------------------------------------
1 | 0:00.00 | 10:40.19 | 0 | 48018
2 | 10:40.19 | 7:27.38 | 48019 | 81581
3 | 18:07.57 | 4:44.57 | 81582 | 102938
4 | 22:52.39 | 13:48.09 | 102939 | 165047
Track 1
Filename C:\rip\Panopticon & Wheels Within Wheels - Panopticon , Wheels Within Wheels (2009)\01 ...Speaking...(Collapsed Version).wav
Pre-gap length 0:00:02.00
Peak level 100.0 %
Track quality 100.0 %
Test CRC 462AD9F8
Copy CRC 462AD9F8
Track not present in AccurateRip database
Copy OK
Track 2
Filename C:\rip\Panopticon & Wheels Within Wheels - Panopticon , Wheels Within Wheels (2009)\02 The Ghosts Of Haymarket Square.wav
Peak level 100.0 %
Track quality 100.0 %
Test CRC 298A75F5
Copy CRC 298A75F5
Track not present in AccurateRip database
Copy OK
Track 3
Filename C:\rip\Panopticon & Wheels Within Wheels - Panopticon , Wheels Within Wheels (2009)\03 Beginning.wav
Peak level 100.0 %
Track quality 100.0 %
Test CRC 6A89BF2A
Copy CRC 6A89BF2A
Track not present in AccurateRip database
Copy OK
Track 4
Filename C:\rip\Panopticon & Wheels Within Wheels - Panopticon , Wheels Within Wheels (2009)\04 White Light Rains Down On.....wav
Peak level 100.0 %
Track quality 100.0 %
Test CRC 21533E8E
Copy CRC 21533E8E
Track not present in AccurateRip database
Copy OK
None of the tracks are present in the AccurateRip database
No errors occurred
End of status report
CUE
REM GENRE "Black Metal"
REM DATE 2009
REM DISCID 2F089804
REM COMMENT "ExactAudioCopy v0.99pb4"
PERFORMER "Panopticon & Wheels Within Wheels "
TITLE "Panopticon / Wheels Within Wheels "
FILE "Panopticon & Wheels Within Wheels - Panopticon , Wheels Within Wheels (2009)\01 ...Speaking...(Collapsed Version).wav" WAVE
TRACK 01 AUDIO
TITLE "...Speaking...(Collapsed Version)"
PERFORMER "Panopticon & Wheels Within Wheels "
INDEX 01 00:00:00
FILE "Panopticon & Wheels Within Wheels - Panopticon , Wheels Within Wheels (2009)\02 The Ghosts Of Haymarket Square.wav" WAVE
TRACK 02 AUDIO
TITLE "The Ghosts Of Haymarket Square"
PERFORMER "Panopticon & Wheels Within Wheels "
INDEX 01 00:00:00
FILE "Panopticon & Wheels Within Wheels - Panopticon , Wheels Within Wheels (2009)\03 Beginning.wav" WAVE
TRACK 03 AUDIO
TITLE "Beginning"
PERFORMER "Panopticon & Wheels Within Wheels "
INDEX 01 00:00:00
FILE "Panopticon & Wheels Within Wheels - Panopticon , Wheels Within Wheels (2009)\04 White Light Rains Down On.....wav" WAVE
TRACK 04 AUDIO
TITLE "White Light Rains Down On...."
PERFORMER "Panopticon & Wheels Within Wheels "
INDEX 01 00:00:00
Exact Audio Copy V0.99 prebeta 4 from 23. January 2008
EAC extraction logfile from 18. May 2009, 16:39
Panopticon & Wheels Within Wheels / Panopticon / Wheels Within Wheels
Used drive : TSSTcorpCDDVDW SH-S203B Adapter: 4 ID: 0
Read mode : Secure
Utilize accurate stream : Yes
Defeat audio cache : Yes
Make use of C2 pointers : No
Read offset correction : 6
Overread into Lead-In and Lead-Out : No
Fill up missing offset samples with silence : Yes
Delete leading and trailing silent blocks : No
Null samples used in CRC calculations : Yes
Used interface : Native Win32 interface for Win NT & 2000
Gap handling : Appended to previous track
Used output format : User Defined Encoder
Selected bitrate : 128 kBit/s
Quality : High
Add ID3 tag : No
Command line compressor : C:\Programs\foobar2000\util\flac.exe
Additional command line options : -V -8 -T "artist=%a" -T "title=%t" -T "album=%g" -T "date=%y" -T "tracknumber=%n" -T "genre=%m" %s
TOC of the extracted CD
Track | Start | Length | Start sector | End sector
---------------------------------------------------------
1 | 0:00.00 | 10:40.19 | 0 | 48018
2 | 10:40.19 | 7:27.38 | 48019 | 81581
3 | 18:07.57 | 4:44.57 | 81582 | 102938
4 | 22:52.39 | 13:48.09 | 102939 | 165047
Track 1
Filename C:\rip\Panopticon & Wheels Within Wheels - Panopticon , Wheels Within Wheels (2009)\01 ...Speaking...(Collapsed Version).wav
Pre-gap length 0:00:02.00
Peak level 100.0 %
Track quality 100.0 %
Test CRC 462AD9F8
Copy CRC 462AD9F8
Track not present in AccurateRip database
Copy OK
Track 2
Filename C:\rip\Panopticon & Wheels Within Wheels - Panopticon , Wheels Within Wheels (2009)\02 The Ghosts Of Haymarket Square.wav
Peak level 100.0 %
Track quality 100.0 %
Test CRC 298A75F5
Copy CRC 298A75F5
Track not present in AccurateRip database
Copy OK
Track 3
Filename C:\rip\Panopticon & Wheels Within Wheels - Panopticon , Wheels Within Wheels (2009)\03 Beginning.wav
Peak level 100.0 %
Track quality 100.0 %
Test CRC 6A89BF2A
Copy CRC 6A89BF2A
Track not present in AccurateRip database
Copy OK
Track 4
Filename C:\rip\Panopticon & Wheels Within Wheels - Panopticon , Wheels Within Wheels (2009)\04 White Light Rains Down On.....wav
Peak level 100.0 %
Track quality 100.0 %
Test CRC 21533E8E
Copy CRC 21533E8E
Track not present in AccurateRip database
Copy OK
None of the tracks are present in the AccurateRip database
No errors occurred
End of status report
REM GENRE "Black Metal"
REM DATE 2009
REM DISCID 2F089804
REM COMMENT "ExactAudioCopy v0.99pb4"
PERFORMER "Panopticon & Wheels Within Wheels "
TITLE "Panopticon / Wheels Within Wheels "
FILE "Panopticon & Wheels Within Wheels - Panopticon , Wheels Within Wheels (2009)\01 ...Speaking...(Collapsed Version).wav" WAVE
TRACK 01 AUDIO
TITLE "...Speaking...(Collapsed Version)"
PERFORMER "Panopticon & Wheels Within Wheels "
INDEX 01 00:00:00
FILE "Panopticon & Wheels Within Wheels - Panopticon , Wheels Within Wheels (2009)\02 The Ghosts Of Haymarket Square.wav" WAVE
TRACK 02 AUDIO
TITLE "The Ghosts Of Haymarket Square"
PERFORMER "Panopticon & Wheels Within Wheels "
INDEX 01 00:00:00
FILE "Panopticon & Wheels Within Wheels - Panopticon , Wheels Within Wheels (2009)\03 Beginning.wav" WAVE
TRACK 03 AUDIO
TITLE "Beginning"
PERFORMER "Panopticon & Wheels Within Wheels "
INDEX 01 00:00:00
FILE "Panopticon & Wheels Within Wheels - Panopticon , Wheels Within Wheels (2009)\04 White Light Rains Down On.....wav" WAVE
TRACK 04 AUDIO
TITLE "White Light Rains Down On...."
PERFORMER "Panopticon & Wheels Within Wheels "
INDEX 01 00:00:00
01 The Death Of Baldr And The Coming War
02 Aptrgangr
03 Merkstave
04 Idavoll
Отчeт EAC
Exact Audio Copy V0.99 prebeta 5 from 4. May 2009
EAC extraction logfile from 23. October 2010, 15:41
Panopticon / Collapse
Used drive : PIONEER DVD RW DVR-106D Adapter: 1 ID: 0
Read mode : Secure
Utilize accurate stream : Yes
Defeat audio cache : Yes
Make use of C2 pointers : No
Read offset correction : 48
Overread into Lead-In and Lead-Out : Yes
Fill up missing offset samples with silence : Yes
Delete leading and trailing silent blocks : No
Null samples used in CRC calculations : Yes
Used interface : Installed external ASPI interface
Gap handling : Appended to previous track
Used output format : User Defined Encoder
Selected bitrate : 320 kBit/s
Quality : High
Add ID3 tag : No
Command line compressor : C:\Program Files\Exact Audio Copy\Flac\flac.exe
Additional command line options : -V -8 -T "artist=%a" -T "title=%t" -T "album=%g" -T "date=%y" -T "tracknumber=%n" -T "genre=%m" %s
TOC of the extracted CD
Track | Start | Length | Start sector | End sector
---------------------------------------------------------
1 | 0:00.00 | 15:53.52 | 0 | 71526
2 | 15:53.52 | 15:19.39 | 71527 | 140490
3 | 31:13.16 | 10:07.37 | 140491 | 186052
4 | 41:20.53 | 5:02.46 | 186053 | 208748
Track 1
Filename J:\Music\Panopticon - Collapse\01 - The Death of Baldr and the Coming War.wav
Pre-gap length 0:00:02.00
Peak level 100.0 %
Track quality 99.9 %
Test CRC FEC59F9B
Copy CRC FEC59F9B
Accurately ripped (confidence 1) [780607DF]
Copy OK
Track 2
Filename J:\Music\Panopticon - Collapse\02 - Aptrgangr.wav
Peak level 100.0 %
Track quality 100.0 %
Test CRC 1C9CF161
Copy CRC 1C9CF161
Accurately ripped (confidence 1) [FA792EF2]
Copy OK
Track 3
Filename J:\Music\Panopticon - Collapse\03 - Merkstave.wav
Peak level 100.0 %
Track quality 100.0 %
Test CRC 0CA06FC2
Copy CRC 0CA06FC2
Accurately ripped (confidence 1) [776C7C99]
Copy OK
Track 4
Filename J:\Music\Panopticon - Collapse\04 - Idavoll.wav
Peak level 100.0 %
Track quality 100.0 %
Test CRC 5A3F9F82
Copy CRC 5A3F9F82
Accurately ripped (confidence 1) [FD1E85C4]
Copy OK
All tracks accurately ripped
No errors occurred
End of status report
CUE
REM GENRE "Black Metal"
REM DATE 2009
REM DISCID 3A0ADF04
REM COMMENT "ExactAudioCopy v0.99pb5"
PERFORMER "Panopticon"
TITLE "Collapse"
FILE "01 - The Death of Baldr and the Coming War.wav" WAVE
TRACK 01 AUDIO
TITLE "The Death of Baldr and the Coming War"
PERFORMER "Panopticon"
INDEX 01 00:00:00
FILE "02 - Aptrgangr.wav" WAVE
TRACK 02 AUDIO
TITLE "Aptrgangr"
PERFORMER "Panopticon"
INDEX 01 00:00:00
FILE "03 - Merkstave.wav" WAVE
TRACK 03 AUDIO
TITLE "Merkstave"
PERFORMER "Panopticon"
INDEX 01 00:00:00
FILE "04 - Idavoll.wav" WAVE
TRACK 04 AUDIO
TITLE "Idavoll"
PERFORMER "Panopticon"
INDEX 01 00:00:00
Exact Audio Copy V0.99 prebeta 5 from 4. May 2009
EAC extraction logfile from 23. October 2010, 15:41
Panopticon / Collapse
Used drive : PIONEER DVD RW DVR-106D Adapter: 1 ID: 0
Read mode : Secure
Utilize accurate stream : Yes
Defeat audio cache : Yes
Make use of C2 pointers : No
Read offset correction : 48
Overread into Lead-In and Lead-Out : Yes
Fill up missing offset samples with silence : Yes
Delete leading and trailing silent blocks : No
Null samples used in CRC calculations : Yes
Used interface : Installed external ASPI interface
Gap handling : Appended to previous track
Used output format : User Defined Encoder
Selected bitrate : 320 kBit/s
Quality : High
Add ID3 tag : No
Command line compressor : C:\Program Files\Exact Audio Copy\Flac\flac.exe
Additional command line options : -V -8 -T "artist=%a" -T "title=%t" -T "album=%g" -T "date=%y" -T "tracknumber=%n" -T "genre=%m" %s
TOC of the extracted CD
Track | Start | Length | Start sector | End sector
---------------------------------------------------------
1 | 0:00.00 | 15:53.52 | 0 | 71526
2 | 15:53.52 | 15:19.39 | 71527 | 140490
3 | 31:13.16 | 10:07.37 | 140491 | 186052
4 | 41:20.53 | 5:02.46 | 186053 | 208748
Track 1
Filename J:\Music\Panopticon - Collapse\01 - The Death of Baldr and the Coming War.wav
Pre-gap length 0:00:02.00
Peak level 100.0 %
Track quality 99.9 %
Test CRC FEC59F9B
Copy CRC FEC59F9B
Accurately ripped (confidence 1) [780607DF]
Copy OK
Track 2
Filename J:\Music\Panopticon - Collapse\02 - Aptrgangr.wav
Peak level 100.0 %
Track quality 100.0 %
Test CRC 1C9CF161
Copy CRC 1C9CF161
Accurately ripped (confidence 1) [FA792EF2]
Copy OK
Track 3
Filename J:\Music\Panopticon - Collapse\03 - Merkstave.wav
Peak level 100.0 %
Track quality 100.0 %
Test CRC 0CA06FC2
Copy CRC 0CA06FC2
Accurately ripped (confidence 1) [776C7C99]
Copy OK
Track 4
Filename J:\Music\Panopticon - Collapse\04 - Idavoll.wav
Peak level 100.0 %
Track quality 100.0 %
Test CRC 5A3F9F82
Copy CRC 5A3F9F82
Accurately ripped (confidence 1) [FD1E85C4]
Copy OK
All tracks accurately ripped
No errors occurred
End of status report
REM GENRE "Black Metal"
REM DATE 2009
REM DISCID 3A0ADF04
REM COMMENT "ExactAudioCopy v0.99pb5"
PERFORMER "Panopticon"
TITLE "Collapse"
FILE "01 - The Death of Baldr and the Coming War.wav" WAVE
TRACK 01 AUDIO
TITLE "The Death of Baldr and the Coming War"
PERFORMER "Panopticon"
INDEX 01 00:00:00
FILE "02 - Aptrgangr.wav" WAVE
TRACK 02 AUDIO
TITLE "Aptrgangr"
PERFORMER "Panopticon"
INDEX 01 00:00:00
FILE "03 - Merkstave.wav" WAVE
TRACK 03 AUDIO
TITLE "Merkstave"
PERFORMER "Panopticon"
INDEX 01 00:00:00
FILE "04 - Idavoll.wav" WAVE
TRACK 04 AUDIO
TITLE "Idavoll"
PERFORMER "Panopticon"
INDEX 01 00:00:00
01 Smoldering Embers
02 Anamnesis II: A Dry, Sterile Thunder, Without Rain
03 A Message To the Missionary
04 ...Seeing...
05 Watching You
Отчeт EAC
Exact Audio Copy V0.99 prebeta 5 from 4. May 2009
EAC extraction logfile from 21. October 2010, 11:48
Skagos/Panopticon / Skagos/Panopticon
Used drive : TSSTcorpCDDVDW TS-L633M Adapter: 1 ID: 0
Read mode : Secure
Utilize accurate stream : Yes
Defeat audio cache : Yes
Make use of C2 pointers : No
Read offset correction : 6
Overread into Lead-In and Lead-Out : No
Fill up missing offset samples with silence : Yes
Delete leading and trailing silent blocks : No
Null samples used in CRC calculations : Yes
Used interface : Installed external ASPI interface
Gap handling : Appended to previous track
Used output format : User Defined Encoder
Selected bitrate : 320 kBit/s
Quality : High
Add ID3 tag : No
Command line compressor : C:\Program Files\Exact Audio Copy\Flac\flac.exe
Additional command line options : -V -8 -T "artist=%a" -T "title=%t" -T "album=%g" -T "date=%y" -T "tracknumber=%n" -T "genre=%m" %s
TOC of the extracted CD
Track | Start | Length | Start sector | End sector
---------------------------------------------------------
1 | 0:00.00 | 12:33.18 | 0 | 56492
2 | 12:33.18 | 15:15.15 | 56493 | 125132
3 | 27:48.33 | 7:06.14 | 125133 | 157096
4 | 34:54.47 | 8:08.18 | 157097 | 193714
5 | 43:02.65 | 9:13.58 | 193715 | 235247
Track 1
Filename C:\EAC rips\Skagos,Panopticon - 2010 - Skagos,Panopticon\01 - Smoldering Embers.wav
Pre-gap length 0:00:02.00
Peak level 96.3 %
Track quality 100.0 %
Test CRC 3CCD54A5
Copy CRC 3CCD54A5
Track not present in AccurateRip database
Copy OK
Track 2
Filename C:\EAC rips\Skagos,Panopticon - 2010 - Skagos,Panopticon\02 - Anamnesis II- A Dry, Sterile Thunder, Without Rain.wav
Peak level 100.0 %
Track quality 100.0 %
Test CRC CA9AA345
Copy CRC CA9AA345
Track not present in AccurateRip database
Copy OK
Track 3
Filename C:\EAC rips\Skagos,Panopticon - 2010 - Skagos,Panopticon\03 - A Message to the Missionary.wav
Peak level 98.8 %
Track quality 100.0 %
Test CRC 0B19AD7A
Copy CRC 0B19AD7A
Track not present in AccurateRip database
Copy OK
Track 4
Filename C:\EAC rips\Skagos,Panopticon - 2010 - Skagos,Panopticon\04 - ..Seeing...wav
Peak level 98.8 %
Track quality 100.0 %
Test CRC B08A478D
Copy CRC B08A478D
Track not present in AccurateRip database
Copy OK
Track 5
Filename C:\EAC rips\Skagos,Panopticon - 2010 - Skagos,Panopticon\05 - Watching You.wav
Peak level 98.8 %
Track quality 100.0 %
Test CRC 3188FE11
Copy CRC 3188FE11
Track not present in AccurateRip database
Copy OK
None of the tracks are present in the AccurateRip database
No errors occurred
End of status report
CUE
REM GENRE "Black Metal"
REM DATE 2010
REM DISCID 450C4005
REM COMMENT "ExactAudioCopy v0.99pb5"
FILE "Skagos,Panopticon - 2010 - Skagos,Panopticon\01 - Smoldering Embers.wav" WAVE
TRACK 01 AUDIO
INDEX 01 00:00:00
FILE "Skagos,Panopticon - 2010 - Skagos,Panopticon\02 - Anamnesis II- A Dry, Sterile Thunder, Without Rain.wav" WAVE
TRACK 02 AUDIO
INDEX 01 00:00:00
FILE "Skagos,Panopticon - 2010 - Skagos,Panopticon\03 - A Message to the Missionary.wav" WAVE
TRACK 03 AUDIO
INDEX 01 00:00:00
FILE "Skagos,Panopticon - 2010 - Skagos,Panopticon\04 - ..Seeing...wav" WAVE
TRACK 04 AUDIO
INDEX 01 00:00:00
FILE "Skagos,Panopticon - 2010 - Skagos,Panopticon\05 - Watching You.wav" WAVE
TRACK 05 AUDIO
INDEX 01 00:00:00
Exact Audio Copy V0.99 prebeta 5 from 4. May 2009
EAC extraction logfile from 21. October 2010, 11:48
Skagos/Panopticon / Skagos/Panopticon
Used drive : TSSTcorpCDDVDW TS-L633M Adapter: 1 ID: 0
Read mode : Secure
Utilize accurate stream : Yes
Defeat audio cache : Yes
Make use of C2 pointers : No
Read offset correction : 6
Overread into Lead-In and Lead-Out : No
Fill up missing offset samples with silence : Yes
Delete leading and trailing silent blocks : No
Null samples used in CRC calculations : Yes
Used interface : Installed external ASPI interface
Gap handling : Appended to previous track
Used output format : User Defined Encoder
Selected bitrate : 320 kBit/s
Quality : High
Add ID3 tag : No
Command line compressor : C:\Program Files\Exact Audio Copy\Flac\flac.exe
Additional command line options : -V -8 -T "artist=%a" -T "title=%t" -T "album=%g" -T "date=%y" -T "tracknumber=%n" -T "genre=%m" %s
TOC of the extracted CD
Track | Start | Length | Start sector | End sector
---------------------------------------------------------
1 | 0:00.00 | 12:33.18 | 0 | 56492
2 | 12:33.18 | 15:15.15 | 56493 | 125132
3 | 27:48.33 | 7:06.14 | 125133 | 157096
4 | 34:54.47 | 8:08.18 | 157097 | 193714
5 | 43:02.65 | 9:13.58 | 193715 | 235247
Track 1
Filename C:\EAC rips\Skagos,Panopticon - 2010 - Skagos,Panopticon\01 - Smoldering Embers.wav
Pre-gap length 0:00:02.00
Peak level 96.3 %
Track quality 100.0 %
Test CRC 3CCD54A5
Copy CRC 3CCD54A5
Track not present in AccurateRip database
Copy OK
Track 2
Filename C:\EAC rips\Skagos,Panopticon - 2010 - Skagos,Panopticon\02 - Anamnesis II- A Dry, Sterile Thunder, Without Rain.wav
Peak level 100.0 %
Track quality 100.0 %
Test CRC CA9AA345
Copy CRC CA9AA345
Track not present in AccurateRip database
Copy OK
Track 3
Filename C:\EAC rips\Skagos,Panopticon - 2010 - Skagos,Panopticon\03 - A Message to the Missionary.wav
Peak level 98.8 %
Track quality 100.0 %
Test CRC 0B19AD7A
Copy CRC 0B19AD7A
Track not present in AccurateRip database
Copy OK
Track 4
Filename C:\EAC rips\Skagos,Panopticon - 2010 - Skagos,Panopticon\04 - ..Seeing...wav
Peak level 98.8 %
Track quality 100.0 %
Test CRC B08A478D
Copy CRC B08A478D
Track not present in AccurateRip database
Copy OK
Track 5
Filename C:\EAC rips\Skagos,Panopticon - 2010 - Skagos,Panopticon\05 - Watching You.wav
Peak level 98.8 %
Track quality 100.0 %
Test CRC 3188FE11
Copy CRC 3188FE11
Track not present in AccurateRip database
Copy OK
None of the tracks are present in the AccurateRip database
No errors occurred
End of status report
REM GENRE "Black Metal"
REM DATE 2010
REM DISCID 450C4005
REM COMMENT "ExactAudioCopy v0.99pb5"
FILE "Skagos,Panopticon - 2010 - Skagos,Panopticon\01 - Smoldering Embers.wav" WAVE
TRACK 01 AUDIO
INDEX 01 00:00:00
FILE "Skagos,Panopticon - 2010 - Skagos,Panopticon\02 - Anamnesis II- A Dry, Sterile Thunder, Without Rain.wav" WAVE
TRACK 02 AUDIO
INDEX 01 00:00:00
FILE "Skagos,Panopticon - 2010 - Skagos,Panopticon\03 - A Message to the Missionary.wav" WAVE
TRACK 03 AUDIO
INDEX 01 00:00:00
FILE "Skagos,Panopticon - 2010 - Skagos,Panopticon\04 - ..Seeing...wav" WAVE
TRACK 04 AUDIO
INDEX 01 00:00:00
FILE "Skagos,Panopticon - 2010 - Skagos,Panopticon\05 - Watching You.wav" WAVE
TRACK 05 AUDIO
INDEX 01 00:00:00

[1.52 GB] Скачать / Download