(Atmospheric Black Metal) Tantalos - Fiat Lux - 2009, FLAC (image+.cue), lossless - Скачать

Жанр: Atmospheric Black Metal
Год: 2009
Страна: Germany
Лейбл: Naturmacht Productions (NP004)
Источник: Original CD
Аудио кодек: FLAC
Тип рипа: image+.cue
Битрейт аудио: lossless
Продолжительность: 42:44
Трэклист:
1. Exposition 00:51
2. Gen Einsamkeit 05:34
3. Ein - Alles 07:16
4. Mortalitas 04:11
5. Ein - Nichts 04:32
6. Immortalitas 06:01
7. Phantasma 08:37
8. Schlussstueck 03:48
9. Epilog 01:54

музыка, torrent, mp3, скачать, soundtrack, download, бесплатно, альбом, метал, высокое качество, композиции, дискография, торрент, альбом, трек, песни, lossless, рок, metal, rock, cd

Exact Audio Copy V0.99 prebeta 5 from 4. May 2009
EAC extraction logfile from 5. March 2010, 21:42
Tantalos / Fiat Lux
Used drive : Optiarc BD ROM BC-5500S Adapter: 0 ID: 1
Read mode : Secure
Utilize accurate stream : Yes
Defeat audio cache : Yes
Make use of C2 pointers : No
Read offset correction : 48
Overread into Lead-In and Lead-Out : No
Fill up missing offset samples with silence : Yes
Delete leading and trailing silent blocks : No
Null samples used in CRC calculations : Yes
Used interface : Installed external ASPI interface
Used output format : User Defined Encoder
Selected bitrate : 768 kBit/s
Quality : High
Add ID3 tag : No
Command line compressor : C:\Program Files\Exact Audio Copy\FLAC\FLAC.EXE
Additional command line options : -8 -V %s
TOC of the extracted CD
Track | Start | Length | Start sector | End sector
---------------------------------------------------------
1 | 0:00.00 | 0:51.65 | 0 | 3889
2 | 0:51.65 | 5:34.45 | 3890 | 28984
3 | 6:26.35 | 7:16.03 | 28985 | 61687
4 | 13:42.38 | 4:11.10 | 61688 | 80522
5 | 17:53.48 | 4:32.67 | 80523 | 100989
6 | 22:26.40 | 6:01.09 | 100990 | 128073
7 | 28:27.49 | 8:37.39 | 128074 | 166887
8 | 37:05.13 | 3:48.71 | 166888 | 184058
9 | 40:54.09 | 1:54.01 | 184059 | 192609
Range status and errors
Selected range
Filename D:\CD Rip\Tantalos 2009 Fiat Lux\Tantalos - Fiat Lux.wav
Peak level 100.0 %
Range quality 100.0 %
Test CRC 70A696B2
Copy CRC 70A696B2
Copy OK
No errors occurred
AccurateRip summary
Track 1 not present in database
Track 2 not present in database
Track 3 not present in database
Track 4 not present in database
Track 5 not present in database
Track 6 not present in database
Track 7 not present in database
Track 8 not present in database
Track 9 not present in database
None of the tracks are present in the AccurateRip database
End of status report

[271.6 MB] Скачать / Download