(Atmospheric Black Metal) Urfaust - Apparitions (EP) - 2015, FLAC (tracks), lossless - Скачать

Жанр: Atmospheric Black Metal
Носитель: WEB
Страна-производитель диска (релиза): Germany
Год издания: 2015
Издатель (лейбл): Ván Records
Страна исполнителя (группы): Netherlands
Аудиокодек: FLAC (*.flac)
Тип рипа: tracks
Битрейт аудио: lossless
Продолжительность: 00:43:41
Источник (релизер):Bandcamp
Наличие сканов в содержимом раздачи: Только обложка альбома

01. The End of Genetic Circles (06:56)
02. Apparitions (06:28)
03. The Healer (07:29)
04. The River (22:48)

soundtrack, download, rock, альбом, скачать, mp3, композиции, торрент, cd, высокое качество, альбом, lossless, музыка, метал, torrent, дискография, metal, трек, песни, рок, бесплатно

 -----------------------
DON'T MODIFY THIS FILE
-----------------------
PERFORMER: auCDtect Task Manager, ver. 1.6.0 RC1 build 1.6.0.1
Copyright (c) 2008-2010 y-soft. All rights reserved
http://y-soft.org
ANALYZER: auCDtect: CD records authenticity detector, version 0.8.2
Copyright (c) 2004 Oleg Berngardt. All rights reserved.
Copyright (c) 2004 Alexander Djourik. All rights reserved.
FILE: 04. The River.flac
Size: 125309142 Hash: E9BC680ACCB016633D7EE079923F1C8A Accuracy: -m0
Conclusion: CDDA 100%
Signature: C42C76702977CD344F28FA7D82A866B3C8D10125
FILE: 03. The Healer.flac
Size: 52839809 Hash: B417A6675E81E6C9F1862F1DA0E44359 Accuracy: -m0
Conclusion: CDDA 100%
Signature: 073408ADD94484C855BB4F046CC91FE56CE0EC67
FILE: 02. Apparitions.flac
Size: 39892645 Hash: 91C85CF9A29269856FA02C8DFF9626E8 Accuracy: -m0
Conclusion: CDDA 100%
Signature: 899F2E744D03630C0ED650D9B586598B8C9D2912
FILE: 01. The End of Genetic Circles.flac
Size: 28063465 Hash: A6AEA6EE4569B8367DE20566DE6F7AE1 Accuracy: -m0
Conclusion: CDDA 100%
Signature: C5487F4E50F0618A486331B7621D1C321E0D45B5
 foobar2000 1.3.17 / Dynamic Range Meter 1.1.1
log date: 2018-03-14 15:33:33
--------------------------------------------------------------------------------
Analyzed: Urfaust / Apparitions
--------------------------------------------------------------------------------
DR Peak RMS Duration Track
--------------------------------------------------------------------------------
DR10 -0.10 dB -13.59 dB 6:57 01-The End of Genetic Circles
DR7 -0.10 dB -9.87 dB 6:28 02-Apparitions
DR8 -0.10 dB -9.62 dB 7:29 03-The Healer
DR8 -0.10 dB -10.29 dB 22:48 04-The River
--------------------------------------------------------------------------------
Number of tracks: 4
Official DR value: DR8
Samplerate: 44100 Hz
Channels: 2
Bits per sample: 16
Bitrate: 732 kbps
Codec: FLAC
================================================================================
Comes in noble 4-panel digipack with hotfoil embossing and includes a fold out miniposter with info.
This EP is dedicated to the memory of Selim Lemouchi.
Recording information:
Recorded in one night by Urfaust and Herr Deportator at the Kindertranen Studio.
VRDRBR - Drums, Bass, Noise
IX - Guitars, Vocals

[234.8 MB] Скачать / Download