(Atmospheric Neoclassical Black Metal) Aquilus - Griseus - 2012, FLAC (Image+.cue), lossless - Скачать

Жанр: Atmospheric Neoclassical Black Metal
Страна-производитель диска: Italy
Год издания: 2012
Издатель (лейбл): A Sad Sadness Song
Номер по каталогу: SSS008
Страна: Australia
Аудиокодек: FLAC (*.flac)
Тип рипа: Image+.cue
Битрейт аудио: lossless
Продолжительность: 01.19.55
Источник (релизер): Оригинальный диск. Собственный рип.
Наличие сканов в содержимом раздачи: да
Треклист:
01. Nihil [0:14:00.01]
02. Loss [0:09:05.01]
03. Smokefall [0:07:00.01]
04. In Lands of Ashes [0:11:55.01]
05. Latent Thistle [0:05:35.01]
06. Arboreal Sleep [0:08:30.01]
07. The Fawn [0:06:20.01]
08. Night Bell [0:17:30.01]Скачайте пожалуйста торрент файл снова. Рип был переделан 7.12.2012!

музыка, метал, рок, альбом, torrent, rock, торрент, бесплатно, песни, metal, композиции, скачать, дискография, mp3, lossless, высокое качество, soundtrack, трек, cd, альбом, download

 Exact Audio Copy V1.0 beta 3 from 29. August 2011
Отчёт EAC об извлечении, выполненном 7. декабря 2012, 20:59
AQUILUS / Griseus
Дисковод: Optiarc DVD+-RW AD-7760H Adapter: 1 ID: 0
Режим чтения : Достоверность
Использование точного потока : Да
Отключение кэша аудио : Да
Использование указателей C2 : Нет
Коррекция смещения при чтении : 48
Способность читать области Lead-in и Lead-out : Нет
Заполнение пропущенных сэмплов тишиной : Да
Удаление блоков с тишиной в начале и конце : Нет
При вычислениях CRC использовались нулевые сэмплы : Да
Интерфейс : Встроенный Win32-интерфейс для Win NT/2000
Выходной формат : Пользовательский кодировщик
Выбранный битрейт : 128 kBit/s
Качество : Высокий
Добавление ID3-тега : Нет
Утилита сжатия : C:\Program Files (x86)\Exact Audio Copy\Flac\flac.exe
Дополнительные параметры : -V -8 -T "Date=%year%" -T "Genre=%genre%" %source%
TOC извлечённого CD
Трек | Старт | Длительность | Начальный сектор | Конечный сектор
---------------------------------------------------------------------
1 | 0:00.00 | 14:00.01 | 0 | 63000
2 | 14:00.01 | 9:05.01 | 63001 | 103876
3 | 23:05.02 | 7:00.01 | 103877 | 135377
4 | 30:05.03 | 11:55.01 | 135378 | 189003
5 | 42:00.04 | 5:35.01 | 189004 | 214129
6 | 47:35.05 | 8:30.01 | 214130 | 252380
7 | 56:05.06 | 6:20.01 | 252381 | 280881
8 | 62:25.07 | 17:30.01 | 280882 | 359632
Характеристики диапазона извлечения и сообщения об ошибках
Выбранный диапазон
Имя файла C:\Users\Зезюков Денис\Desktop\AQUILUS - Griseus.wav
Пиковый уровень 99.0 %
Скорость извлечения 5.6 X
Качество диапазона 100.0 %
CRC теста 70FC515E
CRC копии 70FC515E
Копирование... OK
Ошибок не произошло
Конец отчёта
 REM GENRE "Atmospheric Neoclassical Black Metal"
REM DATE 2012
REM DISCID 7C12BB08
REM COMMENT "ExactAudioCopy v1.0b3"
PERFORMER "AQUILUS"
TITLE "Griseus"
FILE "AQUILUS - Griseus.flac" WAVE
TRACK 01 AUDIO
TITLE "Nihil"
PERFORMER "AQUILUS"
INDEX 01 00:00:00
TRACK 02 AUDIO
TITLE "Loss"
PERFORMER "AQUILUS"
INDEX 01 14:00:01
TRACK 03 AUDIO
TITLE "Smokefall"
PERFORMER "AQUILUS"
INDEX 01 23:05:02
TRACK 04 AUDIO
TITLE "In Lands of Ashes"
PERFORMER "AQUILUS"
INDEX 01 30:05:03
TRACK 05 AUDIO
TITLE "Latent Thistle"
PERFORMER "AQUILUS"
INDEX 01 42:00:04
TRACK 06 AUDIO
TITLE "Arboreal Sleep"
PERFORMER "AQUILUS"
INDEX 01 47:35:05
TRACK 07 AUDIO
TITLE "The Fawn"
PERFORMER "AQUILUS"
INDEX 01 56:05:06
TRACK 08 AUDIO
TITLE "Night Bell"
PERFORMER "AQUILUS"
INDEX 01 62:25:07

[486.5 MB] Скачать / Download