(Avant-Garde, Black Metal, Industrial) Stagnant Waters - Stagnant Waters - 2012, FLAC (tracks+.cue), lossless - Скачать

Жанр: Avant-Garde, Black Metal, Industrial
Страна-производитель диска: Belgium
Год издания: 2012
Издатель (лейбл): Adversum
Номер по каталогу: AV005
Страна: France/Norway
Аудиокодек: FLAC (*.flac)
Тип рипа: tracks+.cue
Битрейт аудио: lossless
Продолжительность: 45:46
Источник (релизер): what.cd
Наличие сканов в содержимом раздачи: нет
Треклист:
1. Algae
2. ССАЕР ЦНАПЯЛ ПНОИ ТАТ
3. Of Salt and Water
4. Castles
5. Concrete
6. Bandaged in Suicide Notes
7. Axolotl
8. From the Breaking Neck to Infinity
Цитата:
French-Norwegian band Stagnant Waters unleash an awe-inspiring album of mutant music. Firmly rooted in extreme metal, Stagnant Waters present a higly radioactive mix of scathing guitars, otherworldly electronics, dadaistic improvisation, uncompromising complexity and unnatural tempos.
Comprised of Norwegian vocalist Svein Egil "Zweizz" Hatlevik (Fleurety, Umoral, ex-DHG/Dødheimsgard), drummer/electronics/operator/clarinetist Aymeric Thomas (Pryapisme) and guitarist/bassist Camillle Giraudeau (Dreams of the Drowned, Smohalla), Stagnant Waters have recorded a spontaneous, experimental and energetic album, a maximalistic, hedonistic and animalistic celebration of unfettered creativity.

mp3, rock, альбом, рок, download, музыка, cd, трек, дискография, высокое качество, torrent, метал, metal, песни, бесплатно, скачать, альбом, торрент, lossless, композиции, soundtrack

 Exact Audio Copy V1.0 beta 3 from 29. August 2011
EAC extraction logfile from 25. April 2013, 18:13
Stagnant Waters / Stagnant Waters
Used drive : TSSTcorpDVD+-RW TS-U633A Adapter: 1 ID: 0
Read mode : Secure
Utilize accurate stream : Yes
Defeat audio cache : Yes
Make use of C2 pointers : No
Read offset correction : 6
Overread into Lead-In and Lead-Out : No
Fill up missing offset samples with silence : Yes
Delete leading and trailing silent blocks : No
Null samples used in CRC calculations : Yes
Used interface : Native Win32 interface for Win NT & 2000
Gap handling : Appended to previous track
Used output format : User Defined Encoder
Selected bitrate : 128 kBit/s
Quality : High
Add ID3 tag : No
Command line compressor : C:\Program Files (x86)\Exact Audio Copy\Flac\flac.exe
Additional command line options : -8 -V -T "ARTIST=%artist%" -T "TITLE=%title%" -T "ALBUM=%albumtitle%" -T "DATE=%year%" -T "TRACKNUMBER=%tracknr%" -T "GENRE=%genre%" -T "PERFORMER=%albuminterpret%" -T "COMPOSER=%composer%" %haslyrics%--tag-from-file=LYRICS="%lyricsfile%"%haslyrics% -T "ALBUMARTIST=%albumartist%" -T "DISCNUMBER=%cdnumber%" -T "TOTALDISCS=%totalcds%" -T "TOTALTRACKS=%numtracks%" -T "COMMENT=%comment%" %source% -o %dest%
TOC of the extracted CD
Track | Start | Length | Start sector | End sector
---------------------------------------------------------
1 | 0:00.00 | 4:40.16 | 0 | 21015
2 | 4:40.16 | 5:20.26 | 21016 | 45041
3 | 10:00.42 | 6:53.17 | 45042 | 76033
4 | 16:53.59 | 5:35.21 | 76034 | 101179
5 | 22:29.05 | 2:46.26 | 101180 | 113655
6 | 25:15.31 | 3:23.60 | 113656 | 128940
7 | 28:39.16 | 10:10.55 | 128941 | 174745
8 | 38:49.71 | 6:56.08 | 174746 | 205953
Track 1
Filename C:\Stagnant Waters - Stagnant Waters 2012 CD FLAC\01 Algae.wav
Pre-gap length 0:00:02.00
Peak level 99.5 %
Extraction speed 2.4 X
Track quality 99.9 %
Test CRC 295F0176
Copy CRC 295F0176
Track not present in AccurateRip database
Copy OK
Track 2
Filename C:\Stagnant Waters - Stagnant Waters 2012 CD FLAC\02 ССАЕР ЦНАПЯЛ ПНОИ ТАТ.wav
Peak level 100.0 %
Extraction speed 2.8 X
Track quality 99.9 %
Test CRC DCD2F6CF
Copy CRC DCD2F6CF
Track not present in AccurateRip database
Copy OK
Track 3
Filename C:\Stagnant Waters - Stagnant Waters 2012 CD FLAC\03 Of Salt And Water.wav
Peak level 100.0 %
Extraction speed 3.6 X
Track quality 100.0 %
Test CRC 15200D5D
Copy CRC 15200D5D
Track not present in AccurateRip database
Copy OK
Track 4
Filename C:\Stagnant Waters - Stagnant Waters 2012 CD FLAC\04 Castles.wav
Pre-gap length 0:00:02.33
Peak level 100.0 %
Extraction speed 3.5 X
Track quality 99.9 %
Test CRC 163AB198
Copy CRC 163AB198
Track not present in AccurateRip database
Copy OK
Track 5
Filename C:\Stagnant Waters - Stagnant Waters 2012 CD FLAC\05 Concrete.wav
Pre-gap length 0:00:00.37
Peak level 100.0 %
Extraction speed 3.0 X
Track quality 99.9 %
Test CRC DD223FC4
Copy CRC DD223FC4
Track not present in AccurateRip database
Copy OK
Track 6
Filename C:\Stagnant Waters - Stagnant Waters 2012 CD FLAC\06 Bandaged In Suicide Notes.wav
Pre-gap length 0:00:02.08
Peak level 100.0 %
Extraction speed 4.0 X
Track quality 100.0 %
Test CRC 44929BDF
Copy CRC 44929BDF
Track not present in AccurateRip database
Copy OK
Track 7
Filename C:\Stagnant Waters - Stagnant Waters 2012 CD FLAC\07 Axolotl.wav
Pre-gap length 0:00:01.49
Peak level 100.0 %
Extraction speed 4.4 X
Track quality 99.9 %
Test CRC 53B79721
Copy CRC 53B79721
Track not present in AccurateRip database
Copy OK
Track 8
Filename C:\Stagnant Waters - Stagnant Waters 2012 CD FLAC\08 From The Breaking Neck To Infinity.wav
Peak level 100.0 %
Extraction speed 4.5 X
Track quality 99.9 %
Test CRC 4443EBB9
Copy CRC 4443EBB9
Track not present in AccurateRip database
Copy OK
None of the tracks are present in the AccurateRip database
No errors occurred
End of status report
---- CUETools DB Plugin V2.1.3
[CTDB TOCID: M00uuRp.s_ioZP7HlTuXYGtwU.o-] found, Submit result: already submitted
[c3e78bff] (1/1) Accurately ripped
==== Log checksum 255E4DD6B5023E31403ECB99EF546B97C75F0D7FC14E2C124FE863334D8E7592 ====
 REM GENRE "Avantgarde Metal"
REM DATE 2012
REM DISCID 490ABA08
REM COMMENT "ExactAudioCopy v1.0b3"
FILE "01 Algae.wav" WAVE
TRACK 01 AUDIO
INDEX 01 00:00:00
FILE "02 ССАЕР ЦНАПЯЛ ПНОИ ТАТ.wav" WAVE
TRACK 02 AUDIO
INDEX 01 00:00:00
FILE "03 Of Salt And Water.wav" WAVE
TRACK 03 AUDIO
INDEX 01 00:00:00
TRACK 04 AUDIO
INDEX 00 06:50:67
FILE "04 Castles.wav" WAVE
INDEX 01 00:00:00
TRACK 05 AUDIO
INDEX 00 05:34:68
FILE "05 Concrete.wav" WAVE
INDEX 01 00:00:00
TRACK 06 AUDIO
INDEX 00 02:44:20
FILE "06 Bandaged In Suicide Notes.wav" WAVE
INDEX 01 00:00:00
TRACK 07 AUDIO
INDEX 00 03:22:23
FILE "07 Axolotl.wav" WAVE
INDEX 01 00:00:00
FILE "08 From The Breaking Neck To Infinity.wav" WAVE
TRACK 08 AUDIO
INDEX 01 00:00:00

[330.7 MB] Скачать / Download