(Avantgarde Black Metal) Nihasa - Brahamanda Xul Grimoire - 2009, FLAC (image+.cue) lossless - Скачать

NIHASA - Brahamanda Xul Grimoire
Жанр: Avantgarde Black Metal
Год издания диска: 2009
Издатель (лейбл): Zyklon-B Productions
Страна: Greece
Аудио кодек: FLAC (*.flac)
Тип рипа: image+.cue
Битрейт аудио: lossless
Продолжительность: 47:53
Источник (релизер): original CD
Наличие сканов в содержимом раздачи: да
Треклист:
1. Reflections 07:51
2. Shibalba 11:29
3. Rakhsasas 07:01
4. Brahamanda Xul Grimoire 07:32
5. Ais 07:29
6. Nibiru the Winged Sphere 06:28
Доп. информация:ГРЕКОпадение, мрачная раса - разъест вам мозги через уши NIHASA!

mp3, rock, альбом, альбом, высокое качество, композиции, песни, бесплатно, рок, дискография, download, metal, музыка, cd, torrent, soundtrack, скачать, метал, трек, торрент, lossless

 Exact Audio Copy V0.99 prebeta 5 from 4. May 2009
Отчёт EAC об извлечении, выполненном 8. мая 2011, 11:04
Nihasa / Brahamanda Xul Grimoire
Дисковод: Optiarc DVD RW AD-5240S Adapter: 3 ID: 0
Режим чтения : Достоверность
Использование точного потока : Да
Отключение кэша аудио : Да
Использование указателей C2 : Нет
Коррекция смещения при чтении : 48
Способность читать области Lead-in и Lead-out : Нет
Заполнение пропущенных сэмплов тишиной : Да
Удаление блоков с тишиной в начале и конце : Нет
При вычислениях CRC использовались нулевые сэмплы : Да
Интерфейс : Установленный внешний ASPI-интерфейс
Выходной формат : Пользовательский кодировщик
Выбранный битрейт : 768 kBit/s
Качество : Высокий
Добавление ID3-тэга : Нет
Утилита сжатия : C:\Program Files\Exact Audio Copy\FLAC\FLAC.EXE
Дополнительные параметры : -6 -V -T "ARTIST=%a" -T "TITLE=%t" -T "ALBUM=%g" -T "DATE=%y" -T "TRACKNUMBER=%n" -T "GENRE=%m" -T "COMMENT=%e" %s -o %d
TOC извлечённого CD
Трек | Старт | Длительность | Начальный сектор | Конечный сектор
---------------------------------------------------------------------
1 | 0:00.00 | 7:51.60 | 0 | 35384
2 | 7:51.60 | 11:29.48 | 35385 | 87107
3 | 19:21.33 | 7:01.36 | 87108 | 118718
4 | 26:22.69 | 7:32.24 | 118719 | 152642
5 | 33:55.18 | 7:29.30 | 152643 | 186347
6 | 41:24.48 | 6:28.13 | 186348 | 215460
Характеристики диапазона извлечения и сообщения об ошибках
Выбранный диапазон
Имя файла F:\ЯОБРАЗА\Nihasa - Brahamanda Xul Grimoire.wav
Пиковый уровень 100.0 %
Качество диапазона 100.0 %
CRC теста 88EB5649
CRC копии 88EB5649
Копирование... OK
Ошибок не произошло
AccurateRip: сводка
Трек 1 точное извлечение (доверие 1) [75BC0DFA]
Трек 2 точное извлечение (доверие 1) [620C5E38]
Трек 3 точное извлечение (доверие 1) [11637592]
Трек 4 точное извлечение (доверие 1) [FC48E325]
Трек 5 точное извлечение (доверие 1) [4A919E79]
Трек 6 точное извлечение (доверие 1) [5CA30771]
Все треки извлечены точно
Конец отчёта
Released in jewel case CD with silver printings in 500 copies and A5 leather version CD with silver printings in 100 copies.
Cassette version released by Night Birds Records (Ukraine) in August 2010.

Acherontass
See also: Acherontas, Acrimonious, ex-Seventh Xul, ex-Stutthof, ex-Worship, ex-Virus of Koch

[313.1 MB] Скачать / Download