(Black/Dark Metal) Bethlehem - Bethlehem (Limited Edition) - 2016, FLAC (image+.cue), lossless - Скачать


Bethlehem (Limited Edition)

Жанр: Black/Dark Metal Носитель: CD
Страна-производитель диска (релиза): Germany Год издания: 2016
Издатель (лейбл): Prophecy Productions Номер по каталогу: PRO202LU
Страна исполнителя (группы): Germany Аудиокодек: FLAC (*.flac)
Тип рипа: image+.cue Битрейт аудио: lossless
Продолжительность: 50:58/24:26 Источник (релизер): My CD
Наличие сканов в содержимом раздачи: да
Материал предназначен для ознакомления!

скачать, torrent, mp3, дискография, альбом, композиции, lossless, торрент, метал, альбом, soundtrack, песни, музыка, бесплатно, рок, высокое качество, трек, cd, download, metal, rock

01. Fickselbomber Panzerplauze 04:10
02. Kalt' Ritt In Leicht Faltiger Leere 05:25
03. Kynokephale Freuden Im Sumpfleben 05:18
04. Die Dunkelheit Darbt 03:17
05. Gängel Gängel Gang 04:38
06. Arg Tot Frohlockt Kein Kind 05:10
07. Verderbnisheilung In Sterbend' Mahr 05:41
08. Wahn Schmiedet Sarg 05:34
09. Verdammnis Straft Gezügeltes Aas 05:14
10. Kein Mampf Mit Kutzenzangen 06:28
Лог создания рипа
 Exact Audio Copy V1.1 from 23. June 2015
EAC extraction logfile from 7. December 2016, 15:11
Bethlehem / Bethlehem
Used drive : HP DVD Writer 1170d Adapter: 1 ID: 1
Read mode : Secure
Utilize accurate stream : Yes
Defeat audio cache : Yes
Make use of C2 pointers : No
Read offset correction : 6
Overread into Lead-In and Lead-Out : No
Fill up missing offset samples with silence : Yes
Delete leading and trailing silent blocks : No
Null samples used in CRC calculations : Yes
Used interface : Native Win32 interface for Win NT & 2000
Used output format : User Defined Encoder
Selected bitrate : 1024 kBit/s
Quality : High
Add ID3 tag : No
Command line compressor : C:\Program Files (x86)\Exact Audio Copy\Flac\flac.exe
Additional command line options : -V -8 -T "Date=%year%" -T "Genre=%genre%" %source%
TOC of the extracted CD
Track | Start | Length | Start sector | End sector
---------------------------------------------------------
1 | 0:00.00 | 4:10.49 | 0 | 18798
2 | 4:10.49 | 5:25.33 | 18799 | 43206
3 | 9:36.07 | 5:18.44 | 43207 | 67100
4 | 14:54.51 | 3:17.02 | 67101 | 81877
5 | 18:11.53 | 4:37.61 | 81878 | 102713
6 | 22:49.39 | 5:10.38 | 102714 | 126001
7 | 28:00.02 | 5:41.56 | 126002 | 151632
8 | 33:41.58 | 5:34.23 | 151633 | 176705
9 | 39:16.06 | 5:13.68 | 176706 | 200248
10 | 44:29.74 | 6:28.10 | 200249 | 229358
Range status and errors
Selected range
Filename C:\EAC\Ungern666\Bethlehem - Bethlehem.wav
Peak level 98.7 %
Extraction speed 6.9 X
Range quality 100.0 %
Test CRC 5A298001
Copy CRC 5A298001
Copy OK
No errors occurred
AccurateRip summary
Track 1 accurately ripped (confidence 1) [0D4607CB] (AR v2)
Track 2 accurately ripped (confidence 1) [8414AF01] (AR v2)
Track 3 accurately ripped (confidence 1) [FB48CA5E] (AR v2)
Track 4 accurately ripped (confidence 1) [DBDEA38A] (AR v2)
Track 5 accurately ripped (confidence 1) [21FBE539] (AR v2)
Track 6 accurately ripped (confidence 1) [7F6DCEC7] (AR v2)
Track 7 accurately ripped (confidence 1) [11F401C7] (AR v2)
Track 8 accurately ripped (confidence 1) [FDEF6841] (AR v2)
Track 9 accurately ripped (confidence 1) [ACC77767] (AR v2)
Track 10 accurately ripped (confidence 1) [35CD884F] (AR v2)
All tracks accurately ripped
End of status report
---- CUETools DB Plugin V2.1.6
[CTDB TOCID: ZN2RvmofXVQcRP8gX_lGu.lqbSw-] found
Submit result: ZN2RvmofXVQcRP8gX_lGu.lqbSw- has been confirmed
Track | CTDB Status
1 | (2/2) Accurately ripped
2 | (2/2) Accurately ripped
3 | (2/2) Accurately ripped
4 | (2/2) Accurately ripped
5 | (2/2) Accurately ripped
6 | (2/2) Accurately ripped
7 | (2/2) Accurately ripped
8 | (2/2) Accurately ripped
9 | (2/2) Accurately ripped
10 | (2/2) Accurately ripped
==== Log checksum BBF154224A0EBA27C60C0B6D785CEA72186B5460721EAD0AB6C4111C734FA337 ====
 Exact Audio Copy V1.1 from 23. June 2015
EAC extraction logfile from 7. December 2016, 15:11
Bethlehem / Bethlehem
Used drive : HP DVD Writer 1170d Adapter: 1 ID: 1
Read mode : Secure
Utilize accurate stream : Yes
Defeat audio cache : Yes
Make use of C2 pointers : No
Read offset correction : 6
Overread into Lead-In and Lead-Out : No
Fill up missing offset samples with silence : Yes
Delete leading and trailing silent blocks : No
Null samples used in CRC calculations : Yes
Used interface : Native Win32 interface for Win NT & 2000
Used output format : User Defined Encoder
Selected bitrate : 1024 kBit/s
Quality : High
Add ID3 tag : No
Command line compressor : C:\Program Files (x86)\Exact Audio Copy\Flac\flac.exe
Additional command line options : -V -8 -T "Date=%year%" -T "Genre=%genre%" %source%
TOC of the extracted CD
Track | Start | Length | Start sector | End sector
---------------------------------------------------------
1 | 0:00.00 | 4:10.49 | 0 | 18798
2 | 4:10.49 | 5:25.33 | 18799 | 43206
3 | 9:36.07 | 5:18.44 | 43207 | 67100
4 | 14:54.51 | 3:17.02 | 67101 | 81877
5 | 18:11.53 | 4:37.61 | 81878 | 102713
6 | 22:49.39 | 5:10.38 | 102714 | 126001
7 | 28:00.02 | 5:41.56 | 126002 | 151632
8 | 33:41.58 | 5:34.23 | 151633 | 176705
9 | 39:16.06 | 5:13.68 | 176706 | 200248
10 | 44:29.74 | 6:28.10 | 200249 | 229358
Range status and errors
Selected range
Filename C:\EAC\Ungern666\Bethlehem - Bethlehem.wav
Peak level 98.7 %
Extraction speed 6.9 X
Range quality 100.0 %
Test CRC 5A298001
Copy CRC 5A298001
Copy OK
No errors occurred
AccurateRip summary
Track 1 accurately ripped (confidence 1) [0D4607CB] (AR v2)
Track 2 accurately ripped (confidence 1) [8414AF01] (AR v2)
Track 3 accurately ripped (confidence 1) [FB48CA5E] (AR v2)
Track 4 accurately ripped (confidence 1) [DBDEA38A] (AR v2)
Track 5 accurately ripped (confidence 1) [21FBE539] (AR v2)
Track 6 accurately ripped (confidence 1) [7F6DCEC7] (AR v2)
Track 7 accurately ripped (confidence 1) [11F401C7] (AR v2)
Track 8 accurately ripped (confidence 1) [FDEF6841] (AR v2)
Track 9 accurately ripped (confidence 1) [ACC77767] (AR v2)
Track 10 accurately ripped (confidence 1) [35CD884F] (AR v2)
All tracks accurately ripped
End of status report
---- CUETools DB Plugin V2.1.6
[CTDB TOCID: ZN2RvmofXVQcRP8gX_lGu.lqbSw-] found
Submit result: ZN2RvmofXVQcRP8gX_lGu.lqbSw- has been confirmed
Track | CTDB Status
1 | (2/2) Accurately ripped
2 | (2/2) Accurately ripped
3 | (2/2) Accurately ripped
4 | (2/2) Accurately ripped
5 | (2/2) Accurately ripped
6 | (2/2) Accurately ripped
7 | (2/2) Accurately ripped
8 | (2/2) Accurately ripped
9 | (2/2) Accurately ripped
10 | (2/2) Accurately ripped
==== Log checksum BBF154224A0EBA27C60C0B6D785CEA72186B5460721EAD0AB6C4111C734FA337 ====
01. Bosheit Gebärt Ins Gestirn Toter Sinne 04:12
02. Gestrandet Am Fuße Des Nichts 09:28
03. Fickselbomber Panzerplauze (Demo 2014) 04:21
04. Kein Mampf Mit Kutzenzangen (Demo 2014) 06:26
Лог создания рипа
 Exact Audio Copy V1.1 from 23. June 2015
EAC extraction logfile from 7. December 2016, 15:22
Bethlehem / Hollenfahrt - Skarselden
Used drive : HP DVD Writer 1170d Adapter: 1 ID: 1
Read mode : Secure
Utilize accurate stream : Yes
Defeat audio cache : Yes
Make use of C2 pointers : No
Read offset correction : 6
Overread into Lead-In and Lead-Out : No
Fill up missing offset samples with silence : Yes
Delete leading and trailing silent blocks : No
Null samples used in CRC calculations : Yes
Used interface : Native Win32 interface for Win NT & 2000
Used output format : User Defined Encoder
Selected bitrate : 1024 kBit/s
Quality : High
Add ID3 tag : No
Command line compressor : C:\Program Files (x86)\Exact Audio Copy\Flac\flac.exe
Additional command line options : -V -8 -T "Date=%year%" -T "Genre=%genre%" %source%
TOC of the extracted CD
Track | Start | Length | Start sector | End sector
---------------------------------------------------------
1 | 0:00.00 | 4:11.52 | 0 | 18876
2 | 4:11.52 | 9:27.53 | 18877 | 61454
3 | 13:39.30 | 4:20.68 | 61455 | 81022
4 | 18:00.23 | 6:26.24 | 81023 | 109996
Range status and errors
Selected range
Filename C:\EAC\Ungern666\Bethlehem - Hollenfahrt - Skarselden.wav
Peak level 98.7 %
Extraction speed 5.8 X
Range quality 100.0 %
Test CRC 915D1984
Copy CRC 915D1984
Copy OK
No errors occurred
AccurateRip summary
Track 1 not present in database
Track 2 not present in database
Track 3 not present in database
Track 4 not present in database
None of the tracks are present in the AccurateRip database
End of status report
---- CUETools DB Plugin V2.1.6
[CTDB TOCID: Lm6CrdQ1UdMaQWQy.vhK5dZriKo-] found
Submit result: Lm6CrdQ1UdMaQWQy.vhK5dZriKo- has been confirmed
Track | CTDB Status
1 | (1/1) Accurately ripped
2 | (1/1) Accurately ripped
3 | (1/1) Accurately ripped
4 | (1/1) Accurately ripped
==== Log checksum 34BCA437074FD95C08B016DDB038F82836BB61FA46B42BF51CFE815BFD313770 ====
 Exact Audio Copy V1.1 from 23. June 2015
EAC extraction logfile from 7. December 2016, 15:22
Bethlehem / Hollenfahrt - Skarselden
Used drive : HP DVD Writer 1170d Adapter: 1 ID: 1
Read mode : Secure
Utilize accurate stream : Yes
Defeat audio cache : Yes
Make use of C2 pointers : No
Read offset correction : 6
Overread into Lead-In and Lead-Out : No
Fill up missing offset samples with silence : Yes
Delete leading and trailing silent blocks : No
Null samples used in CRC calculations : Yes
Used interface : Native Win32 interface for Win NT & 2000
Used output format : User Defined Encoder
Selected bitrate : 1024 kBit/s
Quality : High
Add ID3 tag : No
Command line compressor : C:\Program Files (x86)\Exact Audio Copy\Flac\flac.exe
Additional command line options : -V -8 -T "Date=%year%" -T "Genre=%genre%" %source%
TOC of the extracted CD
Track | Start | Length | Start sector | End sector
---------------------------------------------------------
1 | 0:00.00 | 4:11.52 | 0 | 18876
2 | 4:11.52 | 9:27.53 | 18877 | 61454
3 | 13:39.30 | 4:20.68 | 61455 | 81022
4 | 18:00.23 | 6:26.24 | 81023 | 109996
Range status and errors
Selected range
Filename C:\EAC\Ungern666\Bethlehem - Hollenfahrt - Skarselden.wav
Peak level 98.7 %
Extraction speed 5.8 X
Range quality 100.0 %
Test CRC 915D1984
Copy CRC 915D1984
Copy OK
No errors occurred
AccurateRip summary
Track 1 not present in database
Track 2 not present in database
Track 3 not present in database
Track 4 not present in database
None of the tracks are present in the AccurateRip database
End of status report
---- CUETools DB Plugin V2.1.6
[CTDB TOCID: Lm6CrdQ1UdMaQWQy.vhK5dZriKo-] found
Submit result: Lm6CrdQ1UdMaQWQy.vhK5dZriKo- has been confirmed
Track | CTDB Status
1 | (1/1) Accurately ripped
2 | (1/1) Accurately ripped
3 | (1/1) Accurately ripped
4 | (1/1) Accurately ripped
==== Log checksum 34BCA437074FD95C08B016DDB038F82836BB61FA46B42BF51CFE815BFD313770 ====

[581.7 MB] Скачать / Download