(Black/Death Metal) Arallu - Desert Battles - Descending To The Sands, 2009, FLAC (image+.cue), lossless - Скачать

Жанр:Black/Death Metal
Год выпуска диска:2009
Страна:Israel (Ma'ale Adummim)
Аудио кодек:FLAC (*.flac)
Тип рипа:image+.cue
Битрейт аудио:lossless
Источник:MeTaLMaDNeSS.TeaM bysnecy
Наличие сканов:да

Состав:
Butchered - Bass
Yonatan Dushnitzki - Drums
Soul Beating - Percussion
Pixel - Guitars
Metalheart - Guitars

Трэклист:
01. [02:17] The Doom Beating
02. [05:20] Desert Battles
03. [04:44] Possessor of the Code
04. [04:13] Old Form of Evil
05. [05:42] The Union of Babylon
06. [07:05] The Demon Curse
07. [06:21] The Keeper of Jerusalem
08. [05:24] Millchama
09. [01:52] Al Macbara
10. [05:01] Battleground (live)
Total Playing Time:00:47:59

mp3, композиции, lossless, torrent, cd, rock, метал, альбом, торрент, песни, бесплатно, soundtrack, альбом, download, скачать, музыка, трек, высокое качество, дискография, metal, рок

Exact Audio Copy V0.99 prebeta 5 from 4. May 2009
EAC extraction logfile from 16. August 2011, 16:22
Arallu / Desert Battles - Descending to the Sands
Used drive : _NEC DVD_RW ND-3540A Adapter: 0 ID: 0
Read mode : Secure
Utilize accurate stream : Yes
Defeat audio cache : Yes
Make use of C2 pointers : No
Read offset correction : 48
Overread into Lead-In and Lead-Out : No
Fill up missing offset samples with silence : Yes
Delete leading and trailing silent blocks : No
Null samples used in CRC calculations : Yes
Used interface : Native Win32 interface for Win NT & 2000
Used output format : User Defined Encoder
Selected bitrate : 40 kBit/s
Quality : High
Add ID3 tag : No
Command line compressor : C:\Program Files\Exact Audio Copy\FLAC.EXE
Additional command line options : -6 -V %s
TOC of the extracted CD
Track | Start | Length | Start sector | End sector
---------------------------------------------------------
1 | 0:00.00 | 2:17.22 | 0 | 10296
2 | 2:17.22 | 5:20.25 | 10297 | 34321
3 | 7:37.47 | 4:43.38 | 34322 | 55584
4 | 12:21.10 | 4:13.20 | 55585 | 74579
5 | 16:34.30 | 5:41.73 | 74580 | 100227
6 | 22:16.28 | 7:04.71 | 100228 | 132098
7 | 29:21.24 | 6:20.44 | 132099 | 160642
8 | 35:41.68 | 5:24.18 | 160643 | 184960
9 | 41:06.11 | 1:52.00 | 184961 | 193360
10 | 42:58.11 | 5:00.40 | 193361 | 215900
11 | 50:30.51 | 26:51.59 | 227301 | 348184
Range status and errors
Selected range
Filename E:\Arallu - 2009 - Desert Battles {snecy.moole.ru}\Arallu - Desert Battles - Descending to the Sands.wav
Peak level 100.0 %
Range quality 99.9 %
Copy CRC 5B957DF7
Copy OK
No errors occurred
AccurateRip summary
Track 1 not present in database
Track 2 not present in database
Track 3 not present in database
Track 4 not present in database
Track 5 not present in database
Track 6 not present in database
Track 7 not present in database
Track 8 not present in database
Track 9 not present in database
Track 10 not present in database
None of the tracks are present in the AccurateRip database
End of status report

[381.8 MB] Скачать / Download