(Black, Death Metal) Emblazoned - Eucharistiae Sacramentum - 2014, FLAC (tracks+.cue), lossless - Скачать

Жанр: Black, Death Metal
Носитель: CD
Год издания: 2014
Издатель (лейбл): Deepsend Records
Страна: USA
Аудиокодек: FLAC (*.flac)
Тип рипа: tracks+.cue
Битрейт аудио: lossless
Продолжительность: 00:30:25
Источник (релизер): what.cd
Наличие сканов в содержимом раздачи: нет

Треклист:

01.Malefic Congregation
02.Heathenist Structure
03.Fatherless Predecessor
04.The Deceiver
05.Perdition
06.Wolven Shroud
07.Iniquitous
08.Divine Delusion

rock, soundtrack, музыка, альбом, торрент, mp3, высокое качество, lossless, скачать, torrent, бесплатно, композиции, дискография, песни, download, альбом, cd, metal, метал, рок, трек

 Exact Audio Copy V1.0 beta 3 from 29. August 2011
EAC extraction logfile from 28. August 2014, 20:20
Emblazoned / Eucharistiae Sacramentum
Used drive : hp DVD-RAM UJ8D1 Adapter: 0 ID: 0
Read mode : Secure
Utilize accurate stream : Yes
Defeat audio cache : Yes
Make use of C2 pointers : No
Read offset correction : 6
Overread into Lead-In and Lead-Out : No
Fill up missing offset samples with silence : Yes
Delete leading and trailing silent blocks : No
Null samples used in CRC calculations : Yes
Used interface : Native Win32 interface for Win NT & 2000
Gap handling : Appended to previous track
Used output format : User Defined Encoder
Selected bitrate : 1024 kBit/s
Quality : High
Add ID3 tag : No
Command line compressor : C:\Program Files (x86)\Exact Audio Copy\Flac\flac.exe
Additional command line options : -8 -V -T "ARTIST=%artist%" -T "TITLE=%title%" -T "ALBUM=%albumtitle%" -T "DATE=%year%" -T "TRACKNUMBER=%tracknr%" -T "GENRE=%genre%" -T "PERFORMER=%albuminterpret%" -T "COMPOSER=%composer%" %haslyrics%--tag-from-file=LYRICS="%lyricsfile%"%haslyrics% -T "ALBUMARTIST=%albumartist%" -T "DISCNUMBER=%cdnumber%" -T "TOTALDISCS=%totalcds%" -T "TOTALTRACKS=%numtracks%" -T "COMMENT=%comment%" %source% -o %dest%
TOC of the extracted CD
Track | Start | Length | Start sector | End sector
---------------------------------------------------------
1 | 0:00.00 | 3:04.68 | 0 | 13867
2 | 3:04.68 | 3:05.73 | 13868 | 27815
3 | 6:10.66 | 4:07.52 | 27816 | 46392
4 | 10:18.43 | 3:26.16 | 46393 | 61858
5 | 13:44.59 | 3:39.37 | 61859 | 78320
6 | 17:24.21 | 2:30.46 | 78321 | 89616
7 | 19:54.67 | 6:28.61 | 89617 | 118777
8 | 26:23.53 | 4:00.63 | 118778 | 136840
Track 1
Filename C:\Users\Lee\Videos\01 - Malefic Congregation.wav
Pre-gap length 0:00:02.00
Peak level 98.9 %
Extraction speed 2.0 X
Track quality 99.9 %
Test CRC 7DF5E2AE
Copy CRC 7DF5E2AE
Track not present in AccurateRip database
Copy OK
Track 2
Filename C:\Users\Lee\Videos\02 - Heathenist Structure.wav
Peak level 98.9 %
Extraction speed 2.8 X
Track quality 100.0 %
Test CRC CA3B51A2
Copy CRC CA3B51A2
Track not present in AccurateRip database
Copy OK
Track 3
Filename C:\Users\Lee\Videos\03 - Fatherless Predecessor.wav
Peak level 98.9 %
Extraction speed 3.1 X
Track quality 100.0 %
Test CRC BD305F6F
Copy CRC BD305F6F
Track not present in AccurateRip database
Copy OK
Track 4
Filename C:\Users\Lee\Videos\04 - The Deceiver.wav
Peak level 98.9 %
Extraction speed 3.3 X
Track quality 100.0 %
Test CRC 1216B780
Copy CRC 1216B780
Track not present in AccurateRip database
Copy OK
Track 5
Filename C:\Users\Lee\Videos\05 - Perdition.wav
Peak level 98.9 %
Extraction speed 3.5 X
Track quality 100.0 %
Test CRC CC050AB2
Copy CRC CC050AB2
Track not present in AccurateRip database
Copy OK
Track 6
Filename C:\Users\Lee\Videos\06 - Wolven Shroud.wav
Peak level 98.9 %
Extraction speed 3.4 X
Track quality 100.0 %
Test CRC 8F2CB673
Copy CRC 8F2CB673
Track not present in AccurateRip database
Copy OK
Track 7
Filename C:\Users\Lee\Videos\07 - Iniquitous.wav
Peak level 98.9 %
Extraction speed 4.1 X
Track quality 100.0 %
Test CRC C9248A22
Copy CRC C9248A22
Track not present in AccurateRip database
Copy OK
Track 8
Filename C:\Users\Lee\Videos\08 - Divine Delusion.wav
Peak level 98.9 %
Extraction speed 4.1 X
Track quality 100.0 %
Test CRC 65C355A4
Copy CRC 65C355A4
Track not present in AccurateRip database
Copy OK
None of the tracks are present in the AccurateRip database
No errors occurred
End of status report
---- CUETools DB Plugin V2.1.3
[CTDB TOCID: mHWACkfbcCHlccF4Z6WTZmfrnx0-] disk not present in database, Submit result: mHWACkfbcCHlccF4Z6WTZmfrnx0- has been uploaded
==== Log checksum B833B67BCF4356DBDEAB5B8EB6D23ADB81E763289372EF17E39969873867377A ====
 REM GENRE "Death Metal"
REM DATE 2014
REM DISCID 64072008
REM COMMENT "ExactAudioCopy v1.0b3"
PERFORMER "Emblazoned"
TITLE "Eucharistiae Sacramentum"
FILE "01. Malefic Congregation.wav" WAVE
TRACK 01 AUDIO
TITLE "Malefic Congregation"
PERFORMER "Emblazoned"
INDEX 01 00:00:00
FILE "02. Heathenist Structure.wav" WAVE
TRACK 02 AUDIO
TITLE "Heathenist Structure"
PERFORMER "Emblazoned"
INDEX 01 00:00:00
FILE "03. Fatherless Predecessor.wav" WAVE
TRACK 03 AUDIO
TITLE "Fatherless Predecessor"
PERFORMER "Emblazoned"
INDEX 01 00:00:00
FILE "04. The Deceiver.wav" WAVE
TRACK 04 AUDIO
TITLE "The Deceiver"
PERFORMER "Emblazoned"
INDEX 01 00:00:00
FILE "05. Perdition.wav" WAVE
TRACK 05 AUDIO
TITLE "Perdition"
PERFORMER "Emblazoned"
INDEX 01 00:00:00
FILE "06. Wolven Shroud.wav" WAVE
TRACK 06 AUDIO
TITLE "Wolven Shroud"
PERFORMER "Emblazoned"
INDEX 01 00:00:00
FILE "07. Iniquitous.wav" WAVE
TRACK 07 AUDIO
TITLE "Iniquitous"
PERFORMER "Emblazoned"
INDEX 01 00:00:00
FILE "08. Divine Delusion.wav" WAVE
TRACK 08 AUDIO
TITLE "Divine Delusion"
PERFORMER "Emblazoned"
INDEX 01 00:00:00
 -----------------------
DON'T MODIFY THIS FILE
-----------------------
PERFORMER: auCDtect Task Manager, ver. 1.6.0 RC1 build 1.6.0.1
Copyright (c) 2008-2010 y-soft. All rights reserved
http://y-soft.org
ANALYZER: auCDtect: CD records authenticity detector, version 0.8.2
Copyright (c) 2004 Oleg Berngardt. All rights reserved.
Copyright (c) 2004 Alexander Djourik. All rights reserved.
FILE: 08. Divine Delusion.flac
Size: 32909110 Hash: B666FE7073A02DD257D953AE80BAD509 Accuracy: -m0
Conclusion: CDDA 100%
Signature: D81F91F19B4639D266FC2ABF36C4E3ED512A27C4
FILE: 07. Iniquitous.flac
Size: 51200833 Hash: 254062C48FA027DC174CC77A6F1D03C5 Accuracy: -m0
Conclusion: CDDA 100%
Signature: 5224249AA2E6BBB062600770445D8741AA355907
FILE: 06. Wolven Shroud.flac
Size: 20454625 Hash: 16E0C5BBCE3C2E0CD4EA6838E3D6C421 Accuracy: -m0
Conclusion: CDDA 100%
Signature: DABAF7DAF074255FA1D4FE09BC93B1AD87C1E362
FILE: 05. Perdition.flac
Size: 29537382 Hash: 9DB4D2586894300ACA8B69F258617C32 Accuracy: -m0
Conclusion: CDDA 99%
Signature: EE24E87528F1AFD1F9157A1B24A137AD2519F445
FILE: 04. The Deceiver.flac
Size: 27814906 Hash: 1003F0D37666110E835EE8D0B2619D33 Accuracy: -m0
Conclusion: CDDA 100%
Signature: 7B5DE452C281AE724E5DB7CF7BDA4FE8EED71B6D
FILE: 03. Fatherless Predecessor.flac
Size: 32574353 Hash: 67DC2E783B9712478EF7EBF0EFE3E865 Accuracy: -m0
Conclusion: CDDA 100%
Signature: 1BC1E24A6D80D06E68B60F720BE114114EDA010E
FILE: 02. Heathenist Structure.flac
Size: 25158208 Hash: 94A5B5ED0246B02EF1ED70884CB7CC7A Accuracy: -m0
Conclusion: CDDA 100%
Signature: 167D9A1ED0D74D015C5F3B5379E9EB434C087090
FILE: 01. Malefic Congregation.flac
Size: 25083698 Hash: 6252F6C0DB8F785897A306FE808C6B82 Accuracy: -m0
Conclusion: CDDA 100%
Signature: 663102C959BA3611F8522AB3DC83403328600298

[234 MB] Скачать / Download