(Black/Death Metal) Morbosidad - Cojete a Dios por el Culo - 2004, FLAC (image+.cue) lossless - Скачать

Жанр: Black/Death Metal
Страна-производитель диска: USA
Год издания диска: 2004
Издатель (лейбл): Evil Morgue Entertainment
Страна: USA
Аудио кодек: FLAC (*.flac)
Тип рипа: image+.cue
Битрейт аудио: lossless
Продолжительность: 30:52
Источник (релизер): собственный рип
Наличие сканов в содержимом раздачи: да
Треклист:
1. Cadaver Decompuesto En La Cruz 02:13
2. Sangriento Sacrificio Cristiano 02:39
3. Infierno Immortal 02:24
4. Pacto Satanico 02:41
5. Mata En El Nombre De Satanas 01:27
6. Ritual En El Pentagramma 02:11
7. Altar De Sangre Negra 03:37
8. Cojete A Dios Por El Culo 01:25
9. Bestia Del Averno 03:10
10. Muerto En Mi Propia Sangre 01:33
11. Bastardo Hijo Del Cielo 02:42
12. Salomon's Gate (Beherit cover) 03:39
13. Outro 01:06

высокое качество, рок, cd, torrent, бесплатно, metal, альбом, метал, музыка, lossless, скачать, soundtrack, rock, альбом, download, песни, торрент, трек, дискография, mp3, композиции

 Exact Audio Copy V1.0 beta 1 from 15. November 2010
EAC extraction logfile from 31. December 2010, 17:39
Morbosidad / Cojete a Dios por el Culo
Used drive : Optiarc DVD RW AD-7170A Adapter: 0 ID: 0
Read mode : Secure
Utilize accurate stream : Yes
Defeat audio cache : Yes
Make use of C2 pointers : No
Read offset correction : 48
Overread into Lead-In and Lead-Out : No
Fill up missing offset samples with silence : Yes
Delete leading and trailing silent blocks : No
Null samples used in CRC calculations : Yes
Used interface : Native Win32 interface for Win NT & 2000
Used output format : User Defined Encoder
Selected bitrate : 128 kBit/s
Quality : High
Add ID3 tag : No
Command line compressor : C:\Program Files\Exact Audio Copy\Flac\flac.exe
Additional command line options : -8 -V %s
TOC of the extracted CD
Track | Start | Length | Start sector | End sector
---------------------------------------------------------
1 | 0:00.00 | 2:13.28 | 0 | 10002
2 | 2:13.28 | 2:39.28 | 10003 | 21955
3 | 4:52.56 | 2:24.59 | 21956 | 32814
4 | 7:17.40 | 2:41.52 | 32815 | 44941
5 | 9:59.17 | 1:27.30 | 44942 | 51496
6 | 11:26.47 | 2:11.58 | 51497 | 61379
7 | 13:38.30 | 3:37.44 | 61380 | 77698
8 | 17:15.74 | 1:25.51 | 77699 | 84124
9 | 18:41.50 | 3:10.15 | 84125 | 98389
10 | 21:51.65 | 1:33.47 | 98390 | 105411
11 | 23:25.37 | 2:42.72 | 105412 | 117633
12 | 26:08.34 | 3:39.08 | 117634 | 134066
13 | 29:47.42 | 1:05.03 | 134067 | 138944
Range status and errors
Selected range
Filename C:\Users\Станислав\Desktop\Morbosidad - Cojete a Dios por el Culo.wav
Peak level 100.0 %
Extraction speed 0.2 X
Range quality 99.9 %
Copy CRC 10B589D0
Copy OK
No errors occurred
End of status report

[246.3 MB] Скачать / Download