(Black/Death/Middle Eastern Folk Metal) Melechesh - Sphynx (+Bonus Videoclip) - 2003, APE (image+.cue) lossless - Скачать


Жанр: Black/Death/Middle Eastern Folk Metal
Страна-производитель диска: Россия
Год издания диска: 2003
Издатель (лейбл): FONO Ltd.
Номер по каталогу: FO272CD
Страна: Israel / Netherlands
Аудио кодек: APE (*.ape)
Тип рипа: image+.cue (Test&Copy)
Битрейт аудио: lossless
Продолжительность: 63:08
Источник (релизер): собственный рип (EAC)
Наличие сканов в содержимом раздачи: да
Треклист:
01. Of Mercury and Mercury 06:34
02. Secrets of Sumerian Sphynxology 05:33
03. Annunaki's Golden Thrones 05:18
04. Apkallu Counsel 06:42
05. Tablets of Fate 05:30
06. Triangular Tattvic Fire 04:29
07. The Arrival Ritual 05:48
08. Incendium Between Mirage and Time 05:48
09. Purifier of the Stars 04:42
10. Caravans to Ur 12:38

Bonus - Videoclip:
01. Genies, Sorcerers and Mesopotamian Nights

высокое качество, rock, дискография, lossless, download, музыка, mp3, песни, альбом, композиции, бесплатно, скачать, metal, рок, трек, метал, торрент, torrent, cd, soundtrack, альбом

 Exact Audio Copy V0.99 prebeta 5 from 4. May 2009
Отчёт EAC об извлечении, выполненном 6. декабря 2010, 19:41
Melechesh / Sphynx
Дисковод: HL-DT-STDVDRAM GT20N Adapter: 0 ID: 1
Режим чтения : Достоверность
Использование точного потока : Да
Отключение кэша аудио : Да
Использование указателей C2 : Нет
Коррекция смещения при чтении : 667
Способность читать области Lead-in и Lead-out : Нет
Заполнение пропущенных сэмплов тишиной : Да
Удаление блоков с тишиной в начале и конце : Нет
При вычислениях CRC использовались нулевые сэмплы : Да
Интерфейс : Встроенный Win32-интерфейс для Win NT/2000
Выходной формат : Внутренние WAV-операции
Формат сэмплов : 44.100 Гц; 16 бит; стерео
TOC извлечённого CD
Трек | Старт | Длительность | Начальный сектор | Конечный сектор
---------------------------------------------------------------------
1 | 0:00.00 | 6:34.19 | 0 | 29568
2 | 6:34.19 | 5:33.31 | 29569 | 54574
3 | 12:07.50 | 5:18.53 | 54575 | 78477
4 | 17:26.28 | 6:42.18 | 78478 | 108645
5 | 24:08.46 | 5:30.06 | 108646 | 133401
6 | 29:38.52 | 4:29.22 | 133402 | 153598
7 | 34:07.74 | 5:48.48 | 153599 | 179746
8 | 39:56.47 | 5:48.67 | 179747 | 205913
9 | 45:45.39 | 4:42.07 | 205914 | 227070
10 | 50:27.46 | 12:38.36 | 227071 | 283956
11 | 65:38.07 | 4:38.13 | 295357 | 316219
Характеристики диапазона извлечения и сообщения об ошибках
Выбранный диапазон
Имя файла C:\Documents and Settings\All Users\Документы\Sothis718\LOSSLESS\MELECHESH\Melechesh - Sphynx.wav
Пиковый уровень 99.9 %
Качество диапазона 100.0 %
CRC теста CC60DDA1
CRC копии CC60DDA1
Копирование... OK
Ошибок не произошло
AccurateRip: сводка
Трек 1 точное извлечение (доверие 2) [D675CD87]
Трек 2 точное извлечение (доверие 2) [7186D8C5]
Трек 3 точное извлечение (доверие 2) [0F869992]
Трек 4 точное извлечение (доверие 2) [662E9606]
Трек 5 точное извлечение (доверие 2) [7484E24D]
Трек 6 точное извлечение (доверие 2) [85189AA7]
Трек 7 точное извлечение (доверие 2) [96AB0CF0]
Трек 8 точное извлечение (доверие 2) [93484E34]
Трек 9 точное извлечение (доверие 2) [BCE42C77]
Трек 10 точное извлечение (доверие 2) [AEE47A49]
Все треки извлечены точно
Конец отчёта
MPEG-PS: 39.1MiB; 3mn 55s.
Video: VBR; 320x240 (1.422); at 23.976 fps
MPEG-Video (Version 1)
Audio: 224 Kbps; 32000 Hz; 2 Channels; MPEG-Audio
(Version 1) (Layer 2)
All song arrangements by Ashmedi
Recorded and mixed at Los Angered Recordings - Angered, Sweden (30 / 11 - 21 /
12 / 2002)
Engineered by Andy LaRocque
Assistant engineer: Niclas Rudolfsson
Mixed by Andy LaRocque and Melechesh
"The Arrival Ritual" mixed by Al'Hazred in Q-Sonic Prod - Amsterdam, the
Netherlands
Mastered by Attie Bauw at Bauhaus Studio - Amsterdam, the Netherlands
Executive production: Osmose Productions
Third Melechesh album containing 10 tracks. It is an amazing effort which is Extreme and Magickal. This album presents the band's Mesopotamian /Sumerian
Metal in a more aggressive and intricate manner. Recorded at Andy LaRocque's Los Angered Studios in Gothenburg- Sweden. Mastered by Attie Bauwhaus in
Amsterdam the Netherlands. Ron Woodall graphic designer for movies such as Star Wars, Jurassic Park, etc did the cover art.
The CD version includes an Enhanced multimedia section featuring a trip to the world of Melechesh (Lyrical overviews, wallpaper, photos, glossary of
terms, video clip for the track "Genies, Sorcerers and Mesopotamian Nights", this track is originally from the previous album.
Ashmedi : Rhythm & lead guitars, lead vocals
Moloch : Rhythm & lead guitars
Al'Hazred : Bass, vocals
Proscriptor : Drums, vocals
Keyboards by Al'Hazred and Ashmedi
Middle eastern percussion (Daf, Darbukka, Riqq) by Moloch and Ashmedi
Saz by Moloch
Ritual breathing by Ashmedi and Moloch
Guest guitar solo on "Purifier Of The Stars" by Andy LaRocque
Guest vocals on "Apkallu Counsel" by Niclas Rudolfsson

[538.6 MB] Скачать / Download