(Black/Doom Metal) Barathrum - Jetblack Warmetal - 2014, FLAC (image+.cue), lossless - Скачать

Жанр: Black/Doom Metal
Носитель: CD
Год издания: 2014
Издатель (лейбл): Saturnal Records
Номер по каталогу: SR004
Страна исполнителя (группы): Finland
Аудиокодек: FLAC (*.flac)
Тип рипа: image+.cue
Битрейт аудио: lossless
Продолжительность: 36:16
Источник (релизер): Собственный диск
Наличие сканов в содержимом раздачи: да
Треклист:
1. Beltane
2. Boundless Art
3. Sinister Autumn
4. Soaring Up From Hell
5. Warmetal
6. Dagger, Seal, Vengeance
7. Moon Calls
8. Hellbreed
9. Jetblack

альбом, торрент, дискография, soundtrack, rock, бесплатно, песни, cd, lossless, скачать, высокое качество, рок, метал, альбом, torrent, mp3, трек, metal, download, музыка, композиции

 Exact Audio Copy V1.1 from 23. June 2015
EAC extraction logfile from 5. December 2015, 16:50
Barathrum / Jetblack Warmetal
Used drive : hp CDDVDW TS-H653R Adapter: 1 ID: 0
Read mode : Secure
Utilize accurate stream : Yes
Defeat audio cache : Yes
Make use of C2 pointers : No
Read offset correction : 6
Overread into Lead-In and Lead-Out : No
Fill up missing offset samples with silence : Yes
Delete leading and trailing silent blocks : No
Null samples used in CRC calculations : Yes
Used interface : Native Win32 interface for Win NT & 2000
Used output format : User Defined Encoder
Selected bitrate : 896 kBit/s
Quality : High
Add ID3 tag : No
Command line compressor : C:\Program Files\Exact Audio Copy\FLAC\FLAC.EXE
Additional command line options : -V -8 -T "Date=%year%" -T "Genre=%genre%" %source%
TOC of the extracted CD
Track | Start | Length | Start sector | End sector
---------------------------------------------------------
1 | 0:00.00 | 4:44.26 | 0 | 21325
2 | 4:44.26 | 2:11.59 | 21326 | 31209
3 | 6:56.10 | 3:38.70 | 31210 | 47629
4 | 10:35.05 | 2:50.24 | 47630 | 60403
5 | 13:25.29 | 3:10.57 | 60404 | 74710
6 | 16:36.11 | 4:20.05 | 74711 | 94215
7 | 20:56.16 | 3:39.61 | 94216 | 110701
8 | 24:36.02 | 6:15.02 | 110702 | 138828
9 | 30:51.04 | 5:24.69 | 138829 | 163197
Range status and errors
Selected range
Filename D:\Mesmerized by sadomator_666\Barathrum - Jetblack Warmetal.wav
Peak level 100.0 %
Extraction speed 2.6 X
Range quality 100.0 %
Test CRC 47CD6600
Copy CRC 47CD6600
Copy OK
No errors occurred
AccurateRip summary
Track 1 not present in database
Track 2 not present in database
Track 3 not present in database
Track 4 not present in database
Track 5 not present in database
Track 6 not present in database
Track 7 not present in database
Track 8 not present in database
Track 9 not present in database
None of the tracks are present in the AccurateRip database
End of status report
---- CUETools DB Plugin V2.1.6
[CTDB TOCID: 453BD60QLoOU7WAjxLMOH.N5Zkw-] found
Submit result: 453BD60QLoOU7WAjxLMOH.N5Zkw- has been confirmed
Track | CTDB Status
1 | (2/2) Accurately ripped
2 | (2/2) Accurately ripped
3 | (2/2) Accurately ripped
4 | (2/2) Accurately ripped
5 | (2/2) Accurately ripped
6 | (2/2) Accurately ripped
7 | (2/2) Accurately ripped
8 | (2/2) Accurately ripped
9 | (2/2) Accurately ripped
==== Log checksum 7DF7FA759291A9BB0535367C2FD36C8A14C5FA54A5FB00BBA4BA5282EBB8925A ====
 REM GENRE Metal
REM DATE 2014
REM DISCID 8D087F09
REM COMMENT "ExactAudioCopy v1.1"
PERFORMER "Barathrum"
TITLE "Jetblack Warmetal"
FILE "Barathrum - Jetblack Warmetal.flac" WAVE
TRACK 01 AUDIO
TITLE "Beltane"
PERFORMER "Barathrum"
INDEX 01 00:00:00
TRACK 02 AUDIO
TITLE "Boundless Art"
PERFORMER "Barathrum"
INDEX 00 04:42:27
INDEX 01 04:44:26
TRACK 03 AUDIO
TITLE "Sinister Autumn"
PERFORMER "Barathrum"
INDEX 00 06:54:11
INDEX 01 06:56:10
TRACK 04 AUDIO
TITLE "Soaring Up From Hell"
PERFORMER "Barathrum"
INDEX 00 10:33:06
INDEX 01 10:35:05
TRACK 05 AUDIO
TITLE "Warmetal"
PERFORMER "Barathrum"
INDEX 00 13:23:30
INDEX 01 13:25:29
TRACK 06 AUDIO
TITLE "Dagger, Seal, Vengeance"
PERFORMER "Barathrum"
INDEX 00 16:34:12
INDEX 01 16:36:11
TRACK 07 AUDIO
TITLE "Moon Calls"
PERFORMER "Barathrum"
INDEX 00 20:54:17
INDEX 01 20:56:16
TRACK 08 AUDIO
TITLE "Hellbreed"
PERFORMER "Barathrum"
INDEX 00 24:34:03
INDEX 01 24:36:02
TRACK 09 AUDIO
TITLE "Jetblack"
PERFORMER "Barathrum"
INDEX 00 30:49:05
INDEX 01 30:51:04
Рип снят с фирменного диска, купленного напрямую у издающего лейбла. При тестировании Tau Analyzer выявила треки в качестве MPEG, что говорит о соответствующих особенностях записи (реализации материала). Прилагаются все отчёты, а также частотные спектры.
Digipak included long lost and previously unreleased album "The Warmetal" recorded in the 1993 and "Jetblack" EP from 1997 as a bonus.

[263 MB] Скачать / Download