(Black/Doom Metal) Defacer - Nocturnal Mysteries - 1998, FLAC (image+.cue), lossless - Скачать

Жанр: Black/Doom Metal
Страна-производитель диска: Brazil
Год издания: 1998
Издатель (лейбл): Southern Spirits Records
Номер по каталогу: SSR001CD1998
Страна: Brazil
Аудиокодек: FLAC (*.flac)
Тип рипа: image+.cue
Битрейт аудио: lossless
Продолжительность: 00:55:46
Источник (релизер): Собственный рип
Наличие сканов в содержимом раздачи: да
Треклист:
01. Nocturnal Mysteries01:50
02. Defacer (Glorious Emperors of the Darkness)08:25
03. The Silence of the Immortal Truths09:05
04. The Journey of the Erudites11:39
05. In The Meeting of the Weeping of the Nazarene08:04
06. Mystic Castle12:00
07. Anguish04:39

mp3, download, музыка, rock, торрент, soundtrack, трек, песни, композиции, lossless, torrent, дискография, альбом, скачать, рок, cd, альбом, метал, высокое качество, metal, бесплатно

 Exact Audio Copy V1.0 beta 3 from 29. August 2011
EAC extraction logfile from 30. December 2012, 20:52
Defacer / Nocturnal Mysteries
Used drive : Optiarc DVD RW AD-7280S Adapter: 4 ID: 0
Read mode : Secure
Utilize accurate stream : Yes
Defeat audio cache : Yes
Make use of C2 pointers : No
Read offset correction : 48
Overread into Lead-In and Lead-Out : No
Fill up missing offset samples with silence : Yes
Delete leading and trailing silent blocks : No
Null samples used in CRC calculations : Yes
Used interface : Native Win32 interface for Win NT & 2000
Used output format : User Defined Encoder
Selected bitrate : 128 kBit/s
Quality : High
Add ID3 tag : No
Command line compressor : C:\Program Files\Exact Audio Copy\Flac\flac.exe
Additional command line options : -V -8 -T "Date=%year%" -T "Genre=%genre%" %source%
TOC of the extracted CD
Track | Start | Length | Start sector | End sector
---------------------------------------------------------
1 | 0:00.00 | 1:50.57 | 0 | 8306
2 | 1:50.57 | 8:25.36 | 8307 | 46217
3 | 10:16.18 | 9:05.51 | 46218 | 87143
4 | 19:21.69 | 11:39.49 | 87144 | 139617
5 | 31:01.43 | 8:04.64 | 139618 | 175981
6 | 39:06.32 | 12:00.37 | 175982 | 230018
7 | 51:06.69 | 4:39.09 | 230019 | 250952
Range status and errors
Selected range
Filename C:\Askarida666\Defacer - Nocturnal Mysteries.wav
Peak level 100.0 %
Extraction speed 4.1 X
Range quality 100.0 %
Test CRC 5FEBCECA
Copy CRC 5FEBCECA
Copy OK
No errors occurred
AccurateRip summary
Track 1 accurately ripped (confidence 1) [F0184E28] (AR v1)
Track 2 accurately ripped (confidence 1) [0D351D35] (AR v1)
Track 3 accurately ripped (confidence 1) [2FBD8DEF] (AR v1)
Track 4 accurately ripped (confidence 1) [E9F98848] (AR v1)
Track 5 accurately ripped (confidence 1) [4E61F161] (AR v1)
Track 6 accurately ripped (confidence 1) [B918117E] (AR v1)
Track 7 accurately ripped (confidence 1) [CBE8A7E3] (AR v1)
All tracks accurately ripped
End of status report

[383.2 MB] Скачать / Download