(Black/Funeral Doom/Ambient) Nortt - 2005 - Ligfaerd - 2005, FLAC (image + .cue) - Скачать

Страна: Denmark (Odense)
Жанр: Black/Funeral Doom/Ambient
Год выпуска: 2005
Формат: FLAC (image + .cue)
Продолжительность: 45:23
Трэклист:
1. Gudsforladt 04:04
2. Ligprжdike 08:36
3. Vanhellig 08:07
4. Tilforn Tid 12:05
5. Dшdsrune 08:32
6. Ligfжrd 03:56
Доп. информация:Full-length, Total Holocaust Records
November 9th, 2005
MC: Possession Productions
CD: Total Holocaust Records / Red Stream
Gatefold LP: Cryptia Productions (Limited to 300 copies)
Picture LP: Viva Hate Records (Limited to 500 copies, of which 55 were released
together with a test press, in a special hand-numbered embossed cover.)
Only the MC version was released in 2005, CD and vinyl were released early
2006.
An advance copy of Ligfaerd exists on tape, limited to 10 copies. This was only
sent to labels.

рок, rock, альбом, скачать, download, mp3, lossless, метал, metal, трек, бесплатно, torrent, песни, cd, композиции, торрент, soundtrack, альбом, музыка, дискография, высокое качество

Exact Audio Copy V0.99 prebeta 4 from 23. January 2008
EAC extraction logfile from 8. April 2008, 15:35
Nortt / Ligfaerd
Used drive : Optiarc DVD RW AD-7170S Adapter: 1 ID: 1
Read mode : Secure
Utilize accurate stream : Yes
Defeat audio cache : Yes
Make use of C2 pointers : No
Read offset correction : 48
Overread into Lead-In and Lead-Out : No
Fill up missing offset samples with silence : Yes
Delete leading and trailing silent blocks : No
Null samples used in CRC calculations : Yes
Used interface : Native Win32 interface for Win NT & 2000
Used output format : User Defined Encoder
Selected bitrate : 1024 kBit/s
Quality : High
Add ID3 tag : No
Command line compressor : C:\Program Files\FLAC\flac.exe
Additional command line options : -T "artist=%a" -T "title=%t" -T "album=%g" -T "date=%y" -T "tracknumber=%n" -T "genre=%m" -6 %s
TOC of the extracted CD
Track | Start | Length | Start sector | End sector
---------------------------------------------------------
1 | 0:00.00 | 4:04.60 | 0 | 18359
2 | 4:04.60 | 8:36.23 | 18360 | 57082
3 | 12:41.08 | 8:07.11 | 57083 | 93618
4 | 20:48.19 | 12:05.27 | 93619 | 148020
5 | 32:53.46 | 8:32.29 | 148021 | 186449
6 | 41:26.00 | 3:57.00 | 186450 | 204224
Range status and errors
Selected range
Filename E:\Мои Документы\Моя музыка\_lossless\Nortt\2005 - Ligfaerd\Nortt - Ligfaerd.wav
Peak level 100.0 %
Range quality 99.9 %
Copy CRC AE447BEA
Copy OK
No errors occurred
End of status report

[211.3 MB] Скачать / Download