(Black Metal) Ankrismah - Dive In the Abyss - 2010, FLAC (image+.cue) lossless - Скачать

Жанр: Black Metal
Страна-производитель диска: France
Год издания диска: 2010
Издатель (лейбл): Armée de la Mort
Номер по каталогу: ADLM-CD-03
Страна: France
Аудио кодек: FLAC (*.flac)
Тип рипа: image+.cue
Битрейт аудио: lossless
Продолжительность: 45:53
Источник (релизер): Original CD
Наличие сканов в содержимом раздачи: да
Треклист:
1. Black Hole 08:08
2. Profanation Du Vice 03:40
3. Nothing Around 01:40
4. Crawling Mist 04:42
5. I Curse 03:19
6. I Worship Madness 05:43
7. Kill Yourself 06:11
8. Narcose 03:49
9. To My Grave 08:41

альбом, torrent, скачать, cd, высокое качество, трек, композиции, метал, рок, lossless, музыка, soundtrack, download, торрент, дискография, metal, rock, бесплатно, mp3, песни, альбом

 Exact Audio Copy V0.99 prebeta 5 from 4. May 2009
EAC extraction logfile from 24. November 2010, 21:40
Ankrismah / Dive In the Abyss
Used drive : HL-DT-STDVD-RAM GH22NP20 Adapter: 0 ID: 0
Read mode : Secure
Utilize accurate stream : Yes
Defeat audio cache : Yes
Make use of C2 pointers : No
Read offset correction : 102
Overread into Lead-In and Lead-Out : No
Fill up missing offset samples with silence : Yes
Delete leading and trailing silent blocks : No
Null samples used in CRC calculations : Yes
Used interface : Native Win32 interface for Win NT & 2000
Used output format : User Defined Encoder
Selected bitrate : 128 kBit/s
Quality : High
Add ID3 tag : No
Command line compressor : C:\Program Files\Exact Audio Copy\Flac\flac.exe
Additional command line options : -T "DATE=%y" -T "GENRE=%m" -8 -V %s
TOC of the extracted CD
Track | Start | Length | Start sector | End sector
---------------------------------------------------------
1 | 0:00.00 | 8:08.09 | 0 | 36608
2 | 8:08.09 | 3:40.29 | 36609 | 53137
3 | 11:48.38 | 1:39.51 | 53138 | 60613
4 | 13:28.14 | 4:41.42 | 60614 | 81730
5 | 18:09.56 | 3:19.30 | 81731 | 96685
6 | 21:29.11 | 5:42.39 | 96686 | 122374
7 | 27:11.50 | 6:10.43 | 122375 | 150167
8 | 33:22.18 | 3:49.23 | 150168 | 167365
9 | 37:11.41 | 8:41.33 | 167366 | 206473
Range status and errors
Selected range
Filename C:\Users\vvb05\Desktop\Аудио\Ankrismah - Dive In the Abyss.wav
Peak level 100.0 %
Range quality 100.0 %
Test CRC C2E322C3
Copy CRC C2E322C3
Copy OK
No errors occurred
AccurateRip summary
Track 1 not present in database
Track 2 not present in database
Track 3 not present in database
Track 4 not present in database
Track 5 not present in database
Track 6 not present in database
Track 7 not present in database
Track 8 not present in database
Track 9 not present in database
None of the tracks are present in the AccurateRip database
End of status report

[296.7 MB] Скачать / Download