(Black Metal) Antaeus - Cut Your Flesh And Worship Satan (2nd Edition) - 2000 (2004 re-issue), FLAC (image+.cue) lossless - Скачать

Жанр: Black Metal
Страна-производитель диска: France
Год издания диска: 2000 (2004 re-issue)
Издатель (лейбл): Osmose Productions
Номер по каталогу: OPCD 158
Страна: France
Аудио кодек: FLAC (*.flac)
Тип рипа: image+.cue
Битрейт аудио: lossless
Продолжительность: 33:11
Источник (релизер): Собственный рип
Наличие сканов в содержимом раздачи: да
Треклист:
01.Inner War(4:28)
02.Seventh Ceremony(4:22)
03.Devotee(4:37)
04.Those with no Eyes(3:08)
05.Specimen 23(4:05)
06.Bleeding Blasphemy(4:51)
07.Nihil Chaos(5:10)

скачать, lossless, музыка, трек, композиции, download, рок, дискография, метал, бесплатно, torrent, cd, metal, mp3, высокое качество, soundtrack, альбом, rock, песни, альбом, торрент

 Exact Audio Copy V1.0 beta 1 from 15. November 2010
EAC extraction logfile from 28. December 2010, 17:00
Antaeus / Cut Your Flesh and Worship Satan
Used drive : TSSTcorpCDDVDW SH-S223F Adapter: 4 ID: 0
Read mode : Secure
Utilize accurate stream : Yes
Defeat audio cache : Yes
Make use of C2 pointers : No
Read offset correction : 6
Overread into Lead-In and Lead-Out : No
Fill up missing offset samples with silence : Yes
Delete leading and trailing silent blocks : No
Null samples used in CRC calculations : Yes
Used interface : Native Win32 interface for Win NT & 2000
Used output format : User Defined Encoder
Selected bitrate : 320 kBit/s
Quality : High
Add ID3 tag : No
Command line compressor : C:\Program Files\Exact Audio Copy\Flac\flac.exe
Additional command line options : -V -8 -T "artist=%a" -T "title=%t" -T "album=%g" -T "date=%y" -T "tracknumber=%n" -T "genre=%m" %s
TOC of the extracted CD
Track | Start | Length | Start sector | End sector
---------------------------------------------------------
1 | 0:00.00 | 4:28.17 | 0 | 20116
2 | 4:28.17 | 4:22.17 | 20117 | 39783
3 | 8:50.34 | 4:36.73 | 39784 | 60556
4 | 13:27.32 | 3:08.03 | 60557 | 74659
5 | 16:35.35 | 4:04.58 | 74660 | 93017
6 | 20:40.18 | 4:51.05 | 93018 | 114847
7 | 25:31.23 | 5:10.29 | 114848 | 138126
8 | 33:13.52 | 17:10.59 | 149527 | 226835
Range status and errors
Selected range
Filename D:\CD\Rips\Antaeus - Cut Your Flesh and Worship Satan (2000)\Antaeus - Cut Your Flesh and Worship Satan.wav
Peak level 100.0 %
Extraction speed 3.6 X
Range quality 100.0 %
Test CRC DFCA630D
Copy CRC DFCA630D
Copy OK
No errors occurred
AccurateRip summary
Track 1 accurately ripped (confidence 3) [CFB1081A]
Track 2 accurately ripped (confidence 3) [CF6DF566]
Track 3 accurately ripped (confidence 3) [AA7CDC70]
Track 4 accurately ripped (confidence 3) [CFA383C1]
Track 5 accurately ripped (confidence 3) [A712AED7]
Track 6 accurately ripped (confidence 3) [F906A961]
Track 7 accurately ripped (confidence 3) [2F760126]
All tracks accurately ripped
End of status report
==== Log checksum C7AA9E6CB5B785E9070A6007890E1FDBA43AEA64AE0B8722A3AB27A2C62829CA ====
Переиздание в digipak'е с 4 видео в качестве бонуса.

[242.3 MB] Скачать / Download