(Black Metal) Barathrum - Venomous - 2002, FLAC (image+.cue), lossless - Скачать

Жанр: Black Metal
Год выпуска диска: 2002
Производитель диска: Finland (Fono, Russia)
Аудио кодек: FLAC
Тип рипа: image+.cue
Битрейт аудио: lossless
Продолжительность: 00:41:36
Трэклист:
01. Witchmaster
02. Sinister Autumn
03. Hills Of The Nurn
04. Black Flames And Blood
05. Lusifer
06. Would You Sleep With The Demons?
07. Soaring Up From Hell
08. Black Death
09. Gloomy Fallen Angel
10.Venomous
Demonos Sova - Bass & Lead Vocals
Anathemalignant - Guitar
Pelceboop - Guitar
Nuclear Tormentorr - Bass
Abyssir - Drums
G'thaur - Bass & Back Vocals

All lyrics by Demonos Sova, except “Hills Of The Nurn” by Demonos Sova & Opyros.
All music by Demonos Sova & Barathrum.
Illustration by Toxic Angel.
Recorded at BT Powerhouse Studio.
Mixed At Tico Tico Studio by Anti “Ootuppuko” Kortelainen.
Mastered at Finvox Studios by Mika Jussila.
Photography by Judas.
Доп. информация: Новое пришествие Лорда Баратрума: как в старые добрые времена злой гений Demonas Sova щедро пропитал ядом своей одержимой поэзии и взбесил демоническими конвульсиями маниакальных ритмических структур свой новой шедевр оккультизма и мракобесия. Это уже не Black Metal, но не просто рок - это Black Rock! Не все смогут вникнуть в данный релиз, но тех, кто это сможет сделать ждет по настоящему царская награда - они откроют новое измерение мрака!Источник: скачано в сети

торрент, cd, бесплатно, torrent, lossless, rock, альбом, композиции, метал, download, дискография, музыка, mp3, альбом, soundtrack, высокое качество, песни, скачать, metal, рок, трек

Exact Audio Copy V0.99 prebeta 4 from 23. January 2008
EAC extraction logfile from 22. October 2008, 0:17
Barathrum / Venomous
Used drive : TSSTcorpCDDVDW SH-S223F Adapter: 0 ID: 0
Read mode : Secure
Utilize accurate stream : Yes
Defeat audio cache : Yes
Make use of C2 pointers : No
Read offset correction : 6
Overread into Lead-In and Lead-Out : No
Fill up missing offset samples with silence : Yes
Delete leading and trailing silent blocks : No
Null samples used in CRC calculations : Yes
Used interface : Installed external ASPI interface
Used output format : User Defined Encoder
Selected bitrate : 128 kBit/s
Quality : High
Add ID3 tag : No
Command line compressor : C:\Program\Exact Audio Copy\Flac\bin\flac.exe
Additional command line options : -V -6 -T "artist=%a" -T "title=%t" -T "album=%g" -T "date=%y" -T "tracknumber=%n" -T "genre=%m" %s
TOC of the extracted CD
Track | Start | Length | Start sector | End sector
---------------------------------------------------------
1 | 0:00.00 | 4:40.15 | 0 | 21014
2 | 4:40.15 | 3:23.27 | 21015 | 36266
3 | 8:03.42 | 4:27.28 | 36267 | 56319
4 | 12:30.70 | 4:05.72 | 56320 | 74766
5 | 16:36.67 | 2:13.20 | 74767 | 84761
6 | 18:50.12 | 5:21.30 | 84762 | 108866
7 | 24:11.42 | 4:39.03 | 108867 | 129794
8 | 28:50.45 | 2:57.45 | 129795 | 143114
9 | 31:48.15 | 2:42.72 | 143115 | 155336
10 | 34:31.12 | 7:05.55 | 155337 | 187266
Range status and errors
Selected range
Filename E:\Barathrum - Venomous.wav
Peak level 98.8 %
Range quality 100.0 %
Copy CRC 5B7F5B67
Copy OK
No errors occurred
AccurateRip summary
Track 1 accurately ripped (confidence 8) [92FF3A4E]
Track 2 accurately ripped (confidence 8) [533CE077]
Track 3 accurately ripped (confidence 8) [09409E0A]
Track 4 accurately ripped (confidence 8) [82D122F6]
Track 5 accurately ripped (confidence 8) [FE3A2741]
Track 6 accurately ripped (confidence 8) [5E778FB1]
Track 7 accurately ripped (confidence 8) [E779834C]
Track 8 accurately ripped (confidence 8) [0CE126C2]
Track 9 accurately ripped (confidence 8) [BDAAB710]
Track 10 accurately ripped (confidence 8) [E244E0D1]
All tracks accurately ripped
End of status report

[304.1 MB] Скачать / Download