(Black Metal) Black Angel - The Black Truth - 2011, FLAC (image+.cue), lossless - Скачать

Жанр: Black Metal
Страна-производитель диска: США
Год издания: 2011
Издатель (лейбл): Warhemic Productions
Номер по каталогу: WxP - 003
Страна: Перу
Аудиокодек: FLAC (*.flac)
Тип рипа: image+.cue
Битрейт аудио: lossless
Продолжительность: 33:58
Источник (релизер): Оригинальный диск
Наличие сканов в содержимом раздачи: да
Треклист:
1. Return To Hell
2. The Black Truth
3. Blackphemy
4. Satanic Era
5. Excelso Black Arts
6. The Mystery of Energy
7. The Last Prophecy
8. Confusion, Lies and Satan
9. Occult Eternal Mystery

lossless, дискография, трек, soundtrack, torrent, музыка, скачать, metal, альбом, метал, download, бесплатно, песни, rock, рок, mp3, высокое качество, cd, торрент, композиции, альбом

 Exact Audio Copy V1.0 beta 3 from 29. August 2011
EAC extraction logfile from 30. June 2013, 15:01
Black Angel / The Black Truth
Used drive : Optiarc DVD RW AD-7260S Adapter: 1 ID: 1
Read mode : Secure
Utilize accurate stream : Yes
Defeat audio cache : Yes
Make use of C2 pointers : No
Read offset correction : 48
Overread into Lead-In and Lead-Out : No
Fill up missing offset samples with silence : Yes
Delete leading and trailing silent blocks : No
Null samples used in CRC calculations : Yes
Used interface : Native Win32 interface for Win NT & 2000
Used output format : Internal WAV Routines
Sample format : 44.100 Hz; 16 Bit; Stereo
TOC of the extracted CD
Track | Start | Length | Start sector | End sector
---------------------------------------------------------
1 | 0:00.00 | 3:33.36 | 0 | 16010
2 | 3:33.36 | 4:33.18 | 16011 | 36503
3 | 8:06.54 | 3:36.00 | 36504 | 52703
4 | 11:42.54 | 3:15.63 | 52704 | 67391
5 | 14:58.42 | 3:19.06 | 67392 | 82322
6 | 18:17.48 | 4:26.03 | 82323 | 102275
7 | 22:43.51 | 2:38.03 | 102276 | 114128
8 | 25:21.54 | 3:33.09 | 114129 | 130112
9 | 28:54.63 | 5:03.09 | 130113 | 152846
Range status and errors
Selected range
Filename C:\Мои документы\Black Angel - 2011 - The Black Truth.wav
Peak level 100.0 %
Extraction speed 3.5 X
Range quality 100.0 %
Test CRC 4AB0FF29
Copy CRC 4AB0FF29
Copy OK
No errors occurred
AccurateRip summary
Track 1 not present in database
Track 2 not present in database
Track 3 not present in database
Track 4 not present in database
Track 5 not present in database
Track 6 not present in database
Track 7 not present in database
Track 8 not present in database
Track 9 not present in database
None of the tracks are present in the AccurateRip database
End of status report
---- CUETools DB Plugin V2.1.4
[CTDB TOCID: RW.H1PRO1SobhTU4Cz7QKQt_tNc-] disk not present in database
Submit result: RW.H1PRO1SobhTU4Cz7QKQt_tNc- has been uploaded
==== Log checksum ACE93D54B89E157E4A8166EB14E6601DEBDDE5D6393DC4CE321B8DA848FEA0FC ====

[255.1 MB] Скачать / Download