(Black Metal) Dead Reptile Shrine - Praise Cemetary - 2013, FLAC (image+.cue), lossless - Скачать

Жанр: Black Metal
Носитель: CD
Год издания: 2013
Издатель (лейбл): Antihumanism Records
Страна исполнителя (группы): Finland
Аудиокодек: FLAC (*.flac)
Тип рипа: image+.cue
Битрейт аудио: lossless
Продолжительность: 58:25
Источник (релизер): Диск из личной коллекции
Наличие сканов в содержимом раздачи: да
Треклист:
I. Mountain Ov Souls
II.Inside The Marble Polyandrium
III. Dust Fortress
IV. Living Torch
V. Masonic Corpse Codex
VI. Death Trap
VII. Unicursal Hex
VIII. Dimension Of Mirrors
IX. Frozen Gate To Nowhere
X. Death Of A Sorcerer King
Дополнительная информация
CD limited to 400 copies.
Проекты S. Devamitra, присутствующие на трекере:
r0ck.pro/link/52534441
r0ck.pro/link/54998970

скачать, высокое качество, рок, rock, torrent, альбом, lossless, торрент, метал, музыка, бесплатно, песни, download, альбом, трек, дискография, cd, soundtrack, mp3, metal, композиции

 Exact Audio Copy V1.0 beta 6 from 9. April 2015
EAC extraction logfile from 2. June 2015, 15:49
Dead Reptile Shrine / Praise Cemetary
Used drive : hp CDDVDW TS-H653R Adapter: 1 ID: 0
Read mode : Secure
Utilize accurate stream : Yes
Defeat audio cache : Yes
Make use of C2 pointers : No
Read offset correction : 6
Overread into Lead-In and Lead-Out : No
Fill up missing offset samples with silence : Yes
Delete leading and trailing silent blocks : No
Null samples used in CRC calculations : Yes
Used interface : Native Win32 interface for Win NT & 2000
Used output format : User Defined Encoder
Selected bitrate : 1024 kBit/s
Quality : High
Add ID3 tag : No
Command line compressor : C:\Program Files\Exact Audio Copy\Flac\flac.exe
Additional command line options : -7 -V -T "Artist=%artist%" -T "Title=%title%" -T "Album=%albumtitle%" -T "Date=%year%" -T "Tracknumber=%tracknr%" -T "Genre=%genre%" -T "Comment=%comment%" %source%
TOC of the extracted CD
Track | Start | Length | Start sector | End sector
---------------------------------------------------------
1 | 0:00.00 | 3:38.62 | 0 | 16411
2 | 3:38.62 | 4:27.23 | 16412 | 36459
3 | 8:06.10 | 6:14.39 | 36460 | 64548
4 | 14:20.49 | 3:17.35 | 64549 | 79358
5 | 17:38.09 | 5:23.55 | 79359 | 103638
6 | 23:01.64 | 4:40.72 | 103639 | 124710
7 | 27:42.61 | 5:57.23 | 124711 | 151508
8 | 33:40.09 | 4:41.24 | 151509 | 172607
9 | 38:21.33 | 7:51.69 | 172608 | 208001
10 | 46:13.27 | 12:11.73 | 208002 | 262899
Range status and errors
Selected range
Filename C:\Users\sadomator_666\Desktop\Dead Reptile Shrine - Praise Cemetary.wav
Peak level 100.0 %
Extraction speed 7.3 X
Range quality 100.0 %
Test CRC 7A38F449
Copy CRC 7A38F449
Copy OK
No errors occurred
AccurateRip summary
Track 1 not present in database
Track 2 not present in database
Track 3 not present in database
Track 4 not present in database
Track 5 not present in database
Track 6 not present in database
Track 7 not present in database
Track 8 not present in database
Track 9 not present in database
Track 10 not present in database
None of the tracks are present in the AccurateRip database
End of status report
==== Log checksum D79A5CC810AD1DF85DC845CEF4B232E57956EE26365067CA53B7A354F8083590 ====
 REM GENRE "Black Metal"
REM DATE 2013
REM DISCID 740DB10A
REM COMMENT "ExactAudioCopy v1.0b6"
PERFORMER "Dead Reptile Shrine"
TITLE "Praise Cemetary"
FILE "Dead Reptile Shrine - Praise Cemetary.flac" WAVE
TRACK 01 AUDIO
TITLE "Mountain Ov Souls"
PERFORMER "Dead Reptile Shrine"
INDEX 01 00:00:00
TRACK 02 AUDIO
TITLE "Inside The Marble Polyandrium"
PERFORMER "Dead Reptile Shrine"
INDEX 01 03:38:62
TRACK 03 AUDIO
TITLE "Dust Fortress"
PERFORMER "Dead Reptile Shrine"
INDEX 01 08:06:10
TRACK 04 AUDIO
TITLE "Living Torch"
PERFORMER "Dead Reptile Shrine"
INDEX 01 14:20:49
TRACK 05 AUDIO
TITLE "Masonic Corpse Codex"
PERFORMER "Dead Reptile Shrine"
INDEX 01 17:38:09
TRACK 06 AUDIO
TITLE "Death Trap"
PERFORMER "Dead Reptile Shrine"
INDEX 01 23:01:64
TRACK 07 AUDIO
TITLE "Unicursal Hex"
PERFORMER "Dead Reptile Shrine"
INDEX 01 27:42:61
TRACK 08 AUDIO
TITLE "Dimension Of Mirrors"
PERFORMER "Dead Reptile Shrine"
INDEX 01 33:40:09
TRACK 09 AUDIO
TITLE "Frozen Gate To Nowhere"
PERFORMER "Dead Reptile Shrine"
INDEX 01 38:21:33
TRACK 10 AUDIO
TITLE "Death Of A Sorcerer King"
PERFORMER "Dead Reptile Shrine"
INDEX 01 46:13:27

[328.4 MB] Скачать / Download