(Black Metal) Dødsfall (Dodsfall) - Djevelens Evangelie - 2013, FLAC (image+.cue), lossless - Скачать

Жанр:Black Metal
Страна-производитель диска:Germany
Год издания диска:2013
Издатель (лейбл):Obscure Abhorrence Productions
Номер по каталогу:OAP034
Страна:Norway/Mexico
Аудиокодек:FLAC (*.flac)
Тип рипа:image+.cue
Битрейт аудио:lossless
Продолжительность:42:56
Источник (релизер):Свой рип/Original CD
Наличие сканов в содержимом раздачи:да
Треклист:
01. Azerate - 04:58
02. En hymn til døden - 04:26
03. Slangens kall - 04:24
04. I et endeløst kaos - 04:37
05. Djevelens evangelie - 04:33
06. Svart magi - 04:56
07. Stemmer fra tidens skapelse - 05:01
08. I djevelens tegn - 04:57
09. I det lyset går ned - 05:04
Лог создания рипа
Exact Audio Copy V1.0 beta 3 from 29. August 2011
EAC extraction logfile from 21. June 2014, 16:40
Dodsfall / Djevelens Evangelie
Used drive : TSSTcorpCDDVDW SN-208BB Adapter: 2 ID: 0
Read mode : Secure
Utilize accurate stream : Yes
Defeat audio cache : Yes
Make use of C2 pointers : No
Read offset correction : 6
Overread into Lead-In and Lead-Out : No
Fill up missing offset samples with silence : Yes
Delete leading and trailing silent blocks : No
Null samples used in CRC calculations : Yes
Used interface : Installed external ASPI interface
Used output format : User Defined Encoder
Selected bitrate : 128 kBit/s
Quality : High
Add ID3 tag : No
Command line compressor : C:\Program Files\Exact Audio Copy\Flac\flac.exe
Additional command line options : -V -8 -T "Date=%year%" -T "Genre=%genre%" %source%
TOC of the extracted CD
Track | Start | Length | Start sector | End sector
---------------------------------------------------------
1 | 0:00.00 | 4:58.02 | 0 | 22351
2 | 4:58.02 | 4:26.52 | 22352 | 42353
3 | 9:24.54 | 4:23.56 | 42354 | 62134
4 | 13:48.35 | 4:37.15 | 62135 | 82924
5 | 18:25.50 | 4:33.06 | 82925 | 103405
6 | 22:58.56 | 4:56.10 | 103406 | 125615
7 | 27:54.66 | 5:00.62 | 125616 | 148177
8 | 32:55.53 | 4:57.05 | 148178 | 170457
9 | 37:52.58 | 5:03.17 | 170458 | 193199
Range status and errors
Selected range
Filename E:\sothis718 (r0ck.pro)\Dodsfall - Djevelens Evangelie.wav
Peak level 100.0 %
Extraction speed 1.7 X
Range quality 99.9 %
Test CRC 7D1039BB
Copy CRC 7D1039BB
Copy OK
No errors occurred
AccurateRip summary
Track 1 not present in database
Track 2 not present in database
Track 3 not present in database
Track 4 not present in database
Track 5 not present in database
Track 6 not present in database
Track 7 not present in database
Track 8 not present in database
Track 9 not present in database
None of the tracks are present in the AccurateRip database
End of status report
---- CUETools DB Plugin V2.1.4
[CTDB TOCID: hBlPiFK3jhj738BXaEypjbtF4Go-] disk not present in database
Submit result: hBlPiFK3jhj738BXaEypjbtF4Go- has been uploaded
==== Log checksum AAF7EF2E5AE144F2235113771CB560CD0A4EA0CBB631CC23AD6378939E5C3BD5 ====

альбом, torrent, альбом, rock, metal, песни, бесплатно, музыка, lossless, download, композиции, рок, скачать, cd, дискография, высокое качество, метал, mp3, торрент, трек, soundtrack


Ishtar - Guitars
Adramelech - Vocals
S.D. - Drums

[372.2 MB] Скачать / Download