(Black Metal) Eternum - Summoning the Wolven Spirit (Ltd.Ed.500) - 2013, FLAC (image+.cue), lossless - Скачать

Eternum - Summoning the Wolven Spirit (Ltd.Ed.500)
Жанр: Black Metal
Носитель: CD
Год издания: 2013
Издатель (лейбл): Dark Adversary Productions
Номер по каталогу: DA050
Страна: Australia
Аудиокодек: FLAC (*.flac)
Тип рипа: image+.cue
Битрейт аудио: lossless
Продолжительность: 50:53
Источник (релизер): vampiro
Наличие сканов в содержимом раздачи: да
Треклист:
1. Under the Banner of Barbarism
2. The Weeping Stars of Obscurity
3. To Distant Golden Halls
4. This Empire where the Sun Never Sets...
5. Wolven Spirit
6. A Silent Wandering Moon
7. Blood of the Free
8. Written Upon Nether Winds...

lossless, download, альбом, песни, дискография, cd, metal, torrent, скачать, торрент, метал, музыка, mp3, rock, бесплатно, композиции, альбом, трек, высокое качество, рок, soundtrack

 Exact Audio Copy V1.0 beta 1 from 15. November 2010
EAC extraction logfile from 24. November 2013, 10:56
Eternum / Summoning the Wolven Spirit
Used drive : PLEXTOR DVDR PX-891SA Adapter: 1 ID: 0
Read mode : Secure
Utilize accurate stream : Yes
Defeat audio cache : Yes
Make use of C2 pointers : No
Read offset correction : 6
Overread into Lead-In and Lead-Out : No
Fill up missing offset samples with silence : Yes
Delete leading and trailing silent blocks : No
Null samples used in CRC calculations : Yes
Used interface : Native Win32 interface for Win NT & 2000
Used output format : User Defined Encoder
Selected bitrate : 896 kBit/s
Quality : High
Add ID3 tag : No
Command line compressor : C:\Program Files (x86)\Exact Audio Copy\FLAC\FLAC.EXE
Additional command line options : -6 -V %s
TOC of the extracted CD
Track | Start | Length | Start sector | End sector
---------------------------------------------------------
1 | 0:00.00 | 8:02.56 | 0 | 36205
2 | 8:02.56 | 5:25.12 | 36206 | 60592
3 | 13:27.68 | 2:34.62 | 60593 | 72204
4 | 16:02.55 | 8:37.58 | 72205 | 111037
5 | 24:40.38 | 9:00.39 | 111038 | 151576
6 | 33:41.02 | 3:34.13 | 151577 | 167639
7 | 37:15.15 | 8:32.32 | 167640 | 206071
8 | 45:47.47 | 5:05.32 | 206072 | 228978
Range status and errors
Selected range
Filename D:\MeTaLMaDNeSS.TeaM\Eternum (AUS) - Summoning the Wolven Spirit (Ltd.Ed.500)\Eternum - Summoning the Wolven Spirit.wav
Peak level 100.0 %
Extraction speed 0.8 X
Range quality 100.0 %
Test CRC 2CF7A782
Copy CRC 2CF7A782
Copy OK
No errors occurred
AccurateRip summary
Track 1 not present in database
Track 2 not present in database
Track 3 not present in database
Track 4 not present in database
Track 5 not present in database
Track 6 not present in database
Track 7 not present in database
Track 8 not present in database
None of the tracks are present in the AccurateRip database
End of status report
==== Log checksum DAD00A66DC6F3A05FC2A4D56CE2919A572664045A92734696FF970E58D9F4FD1 ====
Nightwolf Drums, Guitars, Bass, Keyboards
Azgorh Vocals & Lyrics

[300.1 MB] Скачать / Download