(Black Metal) Exile - Hatenight - 2013, FLAC (image+.cue), lossless - Скачать

Exile

Жанр: Black Metal || Страна-производитель диска: USA || Издатель (лейбл): Ah Puch Records
Каталог №: APR007 || Страна: Bulgaria || Год издания: 2013 || Аудиокодек: FLAC (*.flac) || Тип рипа: image+.cue
Битрейт аудио: lossless || Продолжительность: 25:11 || Источник (релизер): Original CD || Наличие сканов в содержимом раздачи: да
Треклист:

метал, скачать, download, soundtrack, композиции, metal, дискография, музыка, трек, альбом, torrent, cd, торрент, альбом, рок, rock, песни, mp3, бесплатно, высокое качество, lossless

1 Hail the Souls of Exile 00:16
2 Hate 03:49
3 Shadowwall 03:45
4 The Second Coming of the Night 05:16
5 Rise the Sword 03:06
6 Leading the Wolveshorde 04:35
7 Deathzone 04:25

Продолжительность: 25:11

 Exact Audio Copy V1.0 beta 3 from 29. August 2011
EAC extraction logfile from 29. May 2014, 4:23
Exile / Hatenight
Used drive : ASUS DRW-22B2L b Adapter: 3 ID: 5
Read mode : Secure
Utilize accurate stream : Yes
Defeat audio cache : Yes
Make use of C2 pointers : No
Read offset correction : 6
Overread into Lead-In and Lead-Out : No
Fill up missing offset samples with silence : Yes
Delete leading and trailing silent blocks : No
Null samples used in CRC calculations : Yes
Used interface : Native Win32 interface for Win NT & 2000
Used output format : User Defined Encoder
Selected bitrate : 128 kBit/s
Quality : High
Add ID3 tag : No
Command line compressor : C:\Program Files\Exact Audio Copy\Flac\flac.exe
Additional command line options : -V -8 -T "Date=%year%" -T "Genre=%genre%" -T "Composer=%composer%" %source%
TOC of the extracted CD
Track | Start | Length | Start sector | End sector
---------------------------------------------------------
1 | 0:00.00 | 0:15.41 | 0 | 1165
2 | 0:15.41 | 3:48.43 | 1166 | 18308
3 | 4:04.09 | 3:44.65 | 18309 | 35173
4 | 7:48.74 | 5:15.48 | 35174 | 58846
5 | 13:04.47 | 3:06.12 | 58847 | 72808
6 | 16:10.59 | 4:34.51 | 72809 | 93409
7 | 20:45.35 | 4:25.04 | 93410 | 113288
Range status and errors
Selected range
Filename C:\1st0m1n\!!! Dedykuję Najpiękniejszej Polce na Całym Bezbrzeżnym Świecie !!!\Exile - Hatenight.wav
Peak level 100.0 %
Extraction speed 7.2 X
Range quality 100.0 %
Test CRC 3585E3F8
Copy CRC 3585E3F8
Copy OK
No errors occurred
AccurateRip summary
Track 1 accurately ripped (confidence 1) [660DDDC8] (AR v2)
Track 2 accurately ripped (confidence 1) [7A9B9BFA] (AR v2)
Track 3 accurately ripped (confidence 1) [62FCAEEF] (AR v2)
Track 4 accurately ripped (confidence 1) [2372F598] (AR v2)
Track 5 accurately ripped (confidence 1) [932D911C] (AR v2)
Track 6 accurately ripped (confidence 1) [2FCE90F7] (AR v2)
Track 7 accurately ripped (confidence 1) [6BBDB4D4] (AR v2)
All tracks accurately ripped
End of status report
---- CUETools DB Plugin V2.1.5
[CTDB TOCID: uMvK0WjPXOy5FosBLHXyOTUzMjc-] found
Submit result: uMvK0WjPXOy5FosBLHXyOTUzMjc- has been confirmed
Track | CTDB Status
1 | (1/1) Accurately ripped
2 | (1/1) Accurately ripped
3 | (1/1) Accurately ripped
4 | (1/1) Accurately ripped
5 | (1/1) Accurately ripped
6 | (1/1) Accurately ripped
7 | (1/1) Accurately ripped
==== Log checksum AFE8AACC7CEBECD0B79276999693826B85CC1B22CE8C9D8ECF3A666AE8E5A662 ====

[177.5 MB] Скачать / Download