(Black Metal) Hautakammio - Kukaan ei Opasta Teitä Pimeässä - 2013, FLAC (image+.cue), lossless - Скачать

Hautakammio

Жанр: Black Metal || Страна-производитель диска: Germany || Лейбл: Darker than Black Records
Каталог №: DTB 087 || Страна: Finland || Год издания: 2013 || Аудиокодек: FLAC (*.flac) || Тип рипа: image+.cue
Битрейт аудио: lossless || Продолжительность: 32:51 || Источник: Original CD || Наличие сканов в содержимом раздачи: да
Треклист:

бесплатно, torrent, торрент, альбом, высокое качество, cd, песни, трек, дискография, метал, rock, рок, композиции, mp3, soundtrack, скачать, альбом, музыка, lossless, metal, download

1 I 06:10
2 II 06:02
3 III 05:13
4 IV 08:37
5 V 06:52

Продолжительность: 32:51

 Exact Audio Copy V1.0 beta 3 from 29. August 2011
EAC extraction logfile from 23. May 2014, 18:01
Hautakammio / Kukaan ei Opasta Teitä Pimeässä
Used drive : ASUS DRW-22B2L b Adapter: 3 ID: 5
Read mode : Secure
Utilize accurate stream : Yes
Defeat audio cache : Yes
Make use of C2 pointers : No
Read offset correction : 6
Overread into Lead-In and Lead-Out : No
Fill up missing offset samples with silence : Yes
Delete leading and trailing silent blocks : No
Null samples used in CRC calculations : Yes
Used interface : Native Win32 interface for Win NT & 2000
Used output format : User Defined Encoder
Selected bitrate : 128 kBit/s
Quality : High
Add ID3 tag : No
Command line compressor : C:\Program Files\Exact Audio Copy\Flac\flac.exe
Additional command line options : -V -8 -T "Date=%year%" -T "Genre=%genre%" -T "Composer=%composer%" %source%
TOC of the extracted CD
Track | Start | Length | Start sector | End sector
---------------------------------------------------------
1 | 0:00.00 | 6:09.36 | 0 | 27710
2 | 6:09.36 | 6:01.19 | 27711 | 54804
3 | 12:10.55 | 5:12.12 | 54805 | 78216
4 | 17:22.67 | 8:36.39 | 78217 | 116955
5 | 25:59.31 | 6:51.14 | 116956 | 147794
Range status and errors
Selected range
Filename C:\1st0m1n\!!! Dedykuję Najpiękniejszej Polce na Całym Bezbrzeżnym Świecie !!!\Hautakammio - Kukaan ei Opasta Teitä Pimeässä.wav
Peak level 100.0 %
Extraction speed 7.4 X
Range quality 100.0 %
Test CRC 6235F256
Copy CRC 6235F256
Copy OK
No errors occurred
AccurateRip summary
Track 1 accurately ripped (confidence 1) [6A6D6AB2] (AR v2)
Track 2 accurately ripped (confidence 1) [06EA7EE0] (AR v2)
Track 3 accurately ripped (confidence 1) [8E74B32F] (AR v2)
Track 4 accurately ripped (confidence 1) [92A0D989] (AR v2)
Track 5 accurately ripped (confidence 1) [506DD194] (AR v2)
All tracks accurately ripped
End of status report
---- CUETools DB Plugin V2.1.5
[CTDB TOCID: nhqlMC0UXsfYm0RSyHL.1OJvpEQ-] found
Submit result: nhqlMC0UXsfYm0RSyHL.1OJvpEQ- has been confirmed
Track | CTDB Status
1 | (1/1) Accurately ripped
2 | (1/1) Accurately ripped
3 | (1/1) Accurately ripped
4 | (1/1) Accurately ripped
5 | (1/1) Accurately ripped
==== Log checksum 9704E9797CB11B07F5354D81460E4CD607D2312487E33F31AB9822AAD9683C43 ====
Выражаю отдельную благодарность zzGreenFly за сканы.

[156.6 MB] Скачать / Download