(Black Metal) Heidenreich - Trance Of An Unholy Union - 1999, FLAC (image+.cue), lossless - Скачать

Жанр: Black Metal
Носитель: CD
Страна-производитель диска: Germany
Год издания: 1999
Издатель (лейбл): Napalm Records Handels GmbH
Номер по каталогу: NPR 059
Страна: Austria
Аудиокодек: FLAC (*.flac)
Тип рипа: image+.cue
Битрейт аудио: lossless
Продолжительность: 41:30
Источник (релизер): My CD
Наличие сканов в содержимом раздачи: да
Треклист:
01. An Incarnations Dream 02:47
02. Cosmic Reflections 05:44
03. The Shadoweaver 04:17
04. The Slumbering Terror 06:16
05. Grim And Bitter Heart 06:10
06. Trance Of An Unholy Union 05:03
07. Das Astrale Element 04:35
08. Heart of Midnight/Genocide 06:38Материал предназначен для ознакомления!

музыка, альбом, альбом, soundtrack, высокое качество, download, скачать, torrent, трек, lossless, композиции, метал, бесплатно, mp3, metal, cd, торрент, дискография, песни, rock, рок

 Exact Audio Copy V1.1 from 23. June 2015
EAC extraction logfile from 22. February 2017, 13:05
Heidenreich / Trance Of An Unholy Union
Used drive : HP DVD Writer 1170d Adapter: 1 ID: 1
Read mode : Secure
Utilize accurate stream : Yes
Defeat audio cache : Yes
Make use of C2 pointers : No
Read offset correction : 6
Overread into Lead-In and Lead-Out : No
Fill up missing offset samples with silence : Yes
Delete leading and trailing silent blocks : No
Null samples used in CRC calculations : Yes
Used interface : Native Win32 interface for Win NT & 2000
Used output format : User Defined Encoder
Selected bitrate : 1024 kBit/s
Quality : High
Add ID3 tag : No
Command line compressor : C:\Program Files (x86)\Exact Audio Copy\Flac\flac.exe
Additional command line options : -V -8 -T "Date=%year%" -T "Genre=%genre%" %source%
TOC of the extracted CD
Track | Start | Length | Start sector | End sector
---------------------------------------------------------
1 | 0:00.00 | 2:47.06 | 0 | 12530
2 | 2:47.06 | 5:44.17 | 12531 | 38347
3 | 8:31.23 | 4:17.48 | 38348 | 57670
4 | 12:48.71 | 6:15.61 | 57671 | 85856
5 | 19:04.57 | 6:09.26 | 85857 | 113557
6 | 25:14.08 | 5:03.06 | 113558 | 136288
7 | 30:17.14 | 4:35.06 | 136289 | 156919
8 | 34:52.20 | 6:38.18 | 156920 | 186787
Range status and errors
Selected range
Filename C:\EAC\Ungern666\Heidenreich - Trance Of An Unholy Union.wav
Peak level 99.9 %
Extraction speed 5.3 X
Range quality 100.0 %
Test CRC 5D5596B1
Copy CRC 5D5596B1
Copy OK
No errors occurred
AccurateRip summary
Track 1 accurately ripped (confidence 7) [0A0A1718] (AR v2)
Track 2 accurately ripped (confidence 7) [A3F59379] (AR v2)
Track 3 accurately ripped (confidence 7) [094F671C] (AR v2)
Track 4 accurately ripped (confidence 7) [D253B4CE] (AR v2)
Track 5 accurately ripped (confidence 7) [A749B4F0] (AR v2)
Track 6 accurately ripped (confidence 7) [5C76D0F9] (AR v2)
Track 7 accurately ripped (confidence 7) [D704B0C2] (AR v2)
Track 8 accurately ripped (confidence 7) [63401D46] (AR v2)
All tracks accurately ripped
End of status report
---- CUETools DB Plugin V2.1.6
[CTDB TOCID: d9oujx2V_NeYwHl9ueYWRpUP9kw-] found
Submit result: already submitted
Track | CTDB Status
1 | (8/8) Accurately ripped
2 | (8/8) Accurately ripped
3 | (8/8) Accurately ripped
4 | (8/8) Accurately ripped
5 | (8/8) Accurately ripped
6 | (8/8) Accurately ripped
7 | (8/8) Accurately ripped
8 | (8/8) Accurately ripped
==== Log checksum DBB6F0C53F1903C2944F2D5705295E90441AEA5C252EA15228996202E6E13295 ====

[303.4 MB] Скачать / Download