(Black Metal) Thornspawn - Sanctified by Satan's Blood (Reissued-2008) - 2007, FLAC (image+.cue), lossless - Скачать

Жанр: Black Metal
Носитель: CD
Год издания: 2007
Страна: United States
Аудиокодек: FLAC (*.flac)
Тип рипа: image+.cue
Битрейт аудио: lossless
Продолжительность: 00:40:18
Источник (релизер): [hardstuff.ws] RD (спасибо)
Наличие сканов в содержимом раздачи: да
Треклист:
01 "Leviathan 666"
02 "Hellfire Genocide"
03 "Intro - Invocation"
04 "Possessed"
05 "Sanctified by Satan's Blood"
06 "Occult Black Death"
07 "Black Wolves of Hades"
08 "Coven of Malicious Fire"
09 "Cursed Birth of the Antichrist"
10 "Outro"
11 "Mutilated Death (Necrovore cover)"

альбом, рок, дискография, rock, композиции, бесплатно, cd, lossless, torrent, альбом, download, песни, трек, soundtrack, высокое качество, метал, metal, mp3, торрент, скачать, музыка


Blackthorn - Drums, Vocals: Necroinferno - Bass: Lord Necron - Guitars:
Swornghoul - Guitars:
 Exact Audio Copy V1.0 beta 3 from 29. August 2011
EAC extraction logfile from 6. June 2014, 22:33
Thornspawn / Sanctified by Satan's Blood (Reissued-2008)
Used drive : MATSHITABD-CMB UJ242AS Adapter: 0 ID: 1
Read mode : Secure
Utilize accurate stream : Yes
Defeat audio cache : Yes
Make use of C2 pointers : No
Read offset correction : 103
Overread into Lead-In and Lead-Out : No
Fill up missing offset samples with silence : Yes
Delete leading and trailing silent blocks : No
Null samples used in CRC calculations : Yes
Used interface : Installed external ASPI interface
Used output format : User Defined Encoder
Selected bitrate : 1024 kBit/s
Quality : High
Add ID3 tag : Yes
Command line compressor : C:\Program Files (x86)\Exact Audio Copy\Flac\flac.exe
Additional command line options : -V -8 -T "Date=%year%" -T "Genre=%genre%" %source%
TOC of the extracted CD
Track | Start | Length | Start sector | End sector
---------------------------------------------------------
1 | 0:00.00 | 1:49.00 | 0 | 8174
2 | 1:49.00 | 5:07.65 | 8175 | 31264
3 | 6:56.65 | 3:39.16 | 31265 | 47705
4 | 10:36.06 | 3:10.29 | 47706 | 61984
5 | 13:46.35 | 3:38.71 | 61985 | 78405
6 | 17:25.31 | 2:52.70 | 78406 | 91375
7 | 20:18.26 | 3:23.70 | 91376 | 106670
8 | 23:42.21 | 5:30.61 | 106671 | 131481
9 | 29:13.07 | 4:46.49 | 131482 | 152980
10 | 33:59.56 | 4:32.69 | 152981 | 173449
11 | 38:32.50 | 1:45.00 | 173450 | 181324
12 | 42:49.50 | 22:51.14 | 192725 | 295563
Range status and errors
Selected range
Filename C:\EACrip\Thornspawn - Sanctified by Satan's Blood (Reissued-2008).wav
Peak level 98.8 %
Extraction speed 3.8 X
Range quality 100.0 %
Test CRC A6E1BC8A
Copy CRC A6E1BC8A
Copy OK
No errors occurred
AccurateRip summary
Track 1 not present in database
Track 2 not present in database
Track 3 not present in database
Track 4 not present in database
Track 5 not present in database
Track 6 not present in database
Track 7 not present in database
Track 8 not present in database
Track 9 not present in database
Track 10 not present in database
Track 11 not present in database
None of the tracks are present in the AccurateRip database
End of status report
==== Log checksum 98FAA03DB9AEF3FA6B3963667CF59AAD3EC1171CA2488EECE65543258ACAADFB ====

[314.8 MB] Скачать / Download