(Black Metal) Tudor - Ultra Black Metal - 2005, FLAC (image+.cue), lossless - Скачать

Жанр: Black Metal
Носитель: CD
Страна-производитель диска (релиза): Неизвестно
Год издания: 2005
Издатель (лейбл): nuclearwarnowproductions
Номер по каталогу: ANTI-GOTH 027
Аудиокодек: FLAC (*.flac)
Тип рипа: image+.cue
Битрейт аудио: lossless
Продолжительность: 36.13.50(1 диск) + 48.46.22(2 диск)
Источник (релизер): Третье лицо
Наличие сканов в содержимом раздачи: да
Треклист:
1.Zombie 04:09
2.Nekrolog 04:36
3.Upíøí žena 03:17
4.Exitus 04:54
5.Plast 06:33
6.Smrtelný Soud 04:14
7.Kremace Svatých 02:17
8.Antikrist 02:15
9.Solo Exotic 03:52
10.Krematorium 03:57
11.Destrukce Mokzu 03:27
12.Excsorszit 03:03
13.Hadies 04:13
14.Høbitov 04:48
15.Král Kanybal 03:34
16.Smrtící Sen 05:06
17.Spasení 05:02
18.Strach 05:01
19.Skeletor I. 01:22
20.Skeletor 04:19
21.Spalovač Mrtvol 04:48Доп. информация: Нашёл в сети альбом малоизвестной группы во flac.Вот,решил поделиться.Первая раздача,не пинайте,если что-то не указано или указано не там.

рок, torrent, soundtrack, cd, торрент, metal, композиции, альбом, скачать, mp3, альбом, download, бесплатно, rock, трек, песни, lossless, дискография, метал, музыка, высокое качество

 
Первый Диск
Exact Audio Copy V0.99 prebeta 5 from 4. May 2009
EAC extraction logfile from 12. January 2014, 10:16
TUDOR / Ultra Black Metal
Used drive : HL-DT-STDVDRAM GP30NB40 Adapter: 1 ID: 0
Read mode : Secure
Utilize accurate stream : Yes
Defeat audio cache : Yes
Make use of C2 pointers : No
Read offset correction : 6
Overread into Lead-In and Lead-Out : No
Fill up missing offset samples with silence : Yes
Delete leading and trailing silent blocks : No
Null samples used in CRC calculations : Yes
Used interface : Installed external ASPI interface
Used output format : User Defined Encoder
Selected bitrate : 1024 kBit/s
Quality : High
Add ID3 tag : No
Command line compressor : C:\Program Files\Exact Audio Copy\Flac\flac.exe
Additional command line options : -V -8 -T "artist=%a" -T "title=%t" -T "album=%g" -T "date=%y" -T "tracknumber=%n" -T "genre=%m" %s
TOC of the extracted CD
Track | Start | Length | Start sector | End sector
---------------------------------------------------------
1 | 0:00.00 | 4:09.63 | 0 | 18737
2 | 4:09.63 | 4:36.62 | 18738 | 39499
3 | 8:46.50 | 3:17.54 | 39500 | 54328
4 | 12:04.29 | 4:54.74 | 54329 | 76452
5 | 16:59.28 | 6:33.57 | 76453 | 105984
6 | 23:33.10 | 4:14.54 | 105985 | 125088
7 | 27:47.64 | 2:17.41 | 125089 | 135404
8 | 30:05.30 | 2:15.56 | 135405 | 145585
9 | 32:21.11 | 3:52.56 | 145586 | 163041
Range status and errors
Selected range
Filename C:\FLAC\TUDOR - Ultra Black Metal [I].wav
Peak level 97.3 %
Range quality 100.0 %
Test CRC 05F73B7D
Copy CRC 05F73B7D
Copy OK
No errors occurred
AccurateRip summary
Track 1 cannot be verified as accurate (confidence 1) [8CAAE86F], AccurateRip returned [22CD5071]
Track 2 cannot be verified as accurate (confidence 1) [A7E1B257], AccurateRip returned [8D4C20EA]
Track 3 cannot be verified as accurate (confidence 1) [6A6CF8C8], AccurateRip returned [CB75E858]
Track 4 cannot be verified as accurate (confidence 1) [D71DCC20], AccurateRip returned [86605D77]
Track 5 cannot be verified as accurate (confidence 1) [D62A4BA9], AccurateRip returned [7EB0CF75]
Track 6 cannot be verified as accurate (confidence 1) [848F2207], AccurateRip returned [C2E9C243]
Track 7 cannot be verified as accurate (confidence 1) [AD3EB4EB], AccurateRip returned [6D5B93CE]
Track 8 cannot be verified as accurate (confidence 1) [787A2E8A], AccurateRip returned [10B81ABF]
Track 9 cannot be verified as accurate (confidence 1) [307705C6], AccurateRip returned [8FE7E438]
No tracks could be verified as accurate
You may have a different pressing from the one(s) in the database
End of status report
Второй Диск
Exact Audio Copy V0.99 prebeta 5 from 4. May 2009
EAC extraction logfile from 12. January 2014, 11:17
TUDOR / Ultra Black Metal
Used drive : HL-DT-STDVDRAM GP30NB40 Adapter: 1 ID: 0
Read mode : Secure
Utilize accurate stream : Yes
Defeat audio cache : Yes
Make use of C2 pointers : No
Read offset correction : 6
Overread into Lead-In and Lead-Out : No
Fill up missing offset samples with silence : Yes
Delete leading and trailing silent blocks : No
Null samples used in CRC calculations : Yes
Used interface : Installed external ASPI interface
Used output format : User Defined Encoder
Selected bitrate : 1024 kBit/s
Quality : High
Add ID3 tag : No
Command line compressor : C:\Program Files\Exact Audio Copy\Flac\flac.exe
Additional command line options : -V -8 -T "artist=%a" -T "title=%t" -T "album=%g" -T "date=%y" -T "tracknumber=%n" -T "genre=%m" %s
TOC of the extracted CD
Track | Start | Length | Start sector | End sector
---------------------------------------------------------
1 | 0:00.00 | 3:57.42 | 0 | 17816
2 | 3:57.42 | 3:27.54 | 17817 | 33395
3 | 7:25.21 | 3:03.33 | 33396 | 47153
4 | 10:28.54 | 4:13.59 | 47154 | 66187
5 | 14:42.38 | 4:48.46 | 66188 | 87833
6 | 19:31.09 | 3:34.58 | 87834 | 103941
7 | 23:05.67 | 5:06.41 | 103942 | 126932
8 | 28:12.33 | 5:02.36 | 126933 | 149618
9 | 33:14.69 | 5:01.03 | 149619 | 172196
10 | 38:15.72 | 1:22.14 | 172197 | 178360
11 | 39:38.11 | 4:19.70 | 178361 | 197855
12 | 43:58.06 | 4:48.10 | 197856 | 219465
Range status and errors
Selected range
Filename C:\FLAC\TUDOR - Ultra Black Metal [II].wav
Peak level 100.0 %
Range quality 99.9 %
Test CRC 2C9577F5
Copy CRC 2C9577F5
Copy OK
No errors occurred
AccurateRip summary
Track 1 cannot be verified as accurate (confidence 1) [39E7169D], AccurateRip returned [68A4422B]
Track 2 cannot be verified as accurate (confidence 1) [E1408C7A], AccurateRip returned [2ED0417C]
Track 3 cannot be verified as accurate (confidence 1) [73D08279], AccurateRip returned [F1B79781]
Track 4 cannot be verified as accurate (confidence 1) [B8397596], AccurateRip returned [208F3807]
Track 5 cannot be verified as accurate (confidence 1) [36B30B4E], AccurateRip returned [2619C3C7]
Track 6 cannot be verified as accurate (confidence 1) [7F440B13], AccurateRip returned [BE342827]
Track 7 cannot be verified as accurate (confidence 1) [104EEC11], AccurateRip returned [129C7E19]
Track 8 cannot be verified as accurate (confidence 1) [06415B88], AccurateRip returned [9F1AFC6F]
Track 9 cannot be verified as accurate (confidence 1) [993540B0], AccurateRip returned [28E06DAD]
Track 10 cannot be verified as accurate (confidence 1) [5F01D15A], AccurateRip returned [AB022B7B]
Track 11 cannot be verified as accurate (confidence 1) [29A99465], AccurateRip returned [B278CCA5]
Track 12 cannot be verified as accurate (confidence 1) [20ADF218], AccurateRip returned [F418E4D4]
No tracks could be verified as accurate
You may have a different pressing from the one(s) in the database
End of status report
Exact Audio Copy V0.99 prebeta 5 from 4. May 2009
EAC extraction logfile from 12. January 2014, 10:16
TUDOR / Ultra Black Metal
Used drive : HL-DT-STDVDRAM GP30NB40 Adapter: 1 ID: 0
Read mode : Secure
Utilize accurate stream : Yes
Defeat audio cache : Yes
Make use of C2 pointers : No
Read offset correction : 6
Overread into Lead-In and Lead-Out : No
Fill up missing offset samples with silence : Yes
Delete leading and trailing silent blocks : No
Null samples used in CRC calculations : Yes
Used interface : Installed external ASPI interface
Used output format : User Defined Encoder
Selected bitrate : 1024 kBit/s
Quality : High
Add ID3 tag : No
Command line compressor : C:\Program Files\Exact Audio Copy\Flac\flac.exe
Additional command line options : -V -8 -T "artist=%a" -T "title=%t" -T "album=%g" -T "date=%y" -T "tracknumber=%n" -T "genre=%m" %s
TOC of the extracted CD
Track | Start | Length | Start sector | End sector
---------------------------------------------------------
1 | 0:00.00 | 4:09.63 | 0 | 18737
2 | 4:09.63 | 4:36.62 | 18738 | 39499
3 | 8:46.50 | 3:17.54 | 39500 | 54328
4 | 12:04.29 | 4:54.74 | 54329 | 76452
5 | 16:59.28 | 6:33.57 | 76453 | 105984
6 | 23:33.10 | 4:14.54 | 105985 | 125088
7 | 27:47.64 | 2:17.41 | 125089 | 135404
8 | 30:05.30 | 2:15.56 | 135405 | 145585
9 | 32:21.11 | 3:52.56 | 145586 | 163041
Range status and errors
Selected range
Filename C:\FLAC\TUDOR - Ultra Black Metal [I].wav
Peak level 97.3 %
Range quality 100.0 %
Test CRC 05F73B7D
Copy CRC 05F73B7D
Copy OK
No errors occurred
AccurateRip summary
Track 1 cannot be verified as accurate (confidence 1) [8CAAE86F], AccurateRip returned [22CD5071]
Track 2 cannot be verified as accurate (confidence 1) [A7E1B257], AccurateRip returned [8D4C20EA]
Track 3 cannot be verified as accurate (confidence 1) [6A6CF8C8], AccurateRip returned [CB75E858]
Track 4 cannot be verified as accurate (confidence 1) [D71DCC20], AccurateRip returned [86605D77]
Track 5 cannot be verified as accurate (confidence 1) [D62A4BA9], AccurateRip returned [7EB0CF75]
Track 6 cannot be verified as accurate (confidence 1) [848F2207], AccurateRip returned [C2E9C243]
Track 7 cannot be verified as accurate (confidence 1) [AD3EB4EB], AccurateRip returned [6D5B93CE]
Track 8 cannot be verified as accurate (confidence 1) [787A2E8A], AccurateRip returned [10B81ABF]
Track 9 cannot be verified as accurate (confidence 1) [307705C6], AccurateRip returned [8FE7E438]
No tracks could be verified as accurate
You may have a different pressing from the one(s) in the database
End of status report
Exact Audio Copy V0.99 prebeta 5 from 4. May 2009
EAC extraction logfile from 12. January 2014, 11:17
TUDOR / Ultra Black Metal
Used drive : HL-DT-STDVDRAM GP30NB40 Adapter: 1 ID: 0
Read mode : Secure
Utilize accurate stream : Yes
Defeat audio cache : Yes
Make use of C2 pointers : No
Read offset correction : 6
Overread into Lead-In and Lead-Out : No
Fill up missing offset samples with silence : Yes
Delete leading and trailing silent blocks : No
Null samples used in CRC calculations : Yes
Used interface : Installed external ASPI interface
Used output format : User Defined Encoder
Selected bitrate : 1024 kBit/s
Quality : High
Add ID3 tag : No
Command line compressor : C:\Program Files\Exact Audio Copy\Flac\flac.exe
Additional command line options : -V -8 -T "artist=%a" -T "title=%t" -T "album=%g" -T "date=%y" -T "tracknumber=%n" -T "genre=%m" %s
TOC of the extracted CD
Track | Start | Length | Start sector | End sector
---------------------------------------------------------
1 | 0:00.00 | 3:57.42 | 0 | 17816
2 | 3:57.42 | 3:27.54 | 17817 | 33395
3 | 7:25.21 | 3:03.33 | 33396 | 47153
4 | 10:28.54 | 4:13.59 | 47154 | 66187
5 | 14:42.38 | 4:48.46 | 66188 | 87833
6 | 19:31.09 | 3:34.58 | 87834 | 103941
7 | 23:05.67 | 5:06.41 | 103942 | 126932
8 | 28:12.33 | 5:02.36 | 126933 | 149618
9 | 33:14.69 | 5:01.03 | 149619 | 172196
10 | 38:15.72 | 1:22.14 | 172197 | 178360
11 | 39:38.11 | 4:19.70 | 178361 | 197855
12 | 43:58.06 | 4:48.10 | 197856 | 219465
Range status and errors
Selected range
Filename C:\FLAC\TUDOR - Ultra Black Metal [II].wav
Peak level 100.0 %
Range quality 99.9 %
Test CRC 2C9577F5
Copy CRC 2C9577F5
Copy OK
No errors occurred
AccurateRip summary
Track 1 cannot be verified as accurate (confidence 1) [39E7169D], AccurateRip returned [68A4422B]
Track 2 cannot be verified as accurate (confidence 1) [E1408C7A], AccurateRip returned [2ED0417C]
Track 3 cannot be verified as accurate (confidence 1) [73D08279], AccurateRip returned [F1B79781]
Track 4 cannot be verified as accurate (confidence 1) [B8397596], AccurateRip returned [208F3807]
Track 5 cannot be verified as accurate (confidence 1) [36B30B4E], AccurateRip returned [2619C3C7]
Track 6 cannot be verified as accurate (confidence 1) [7F440B13], AccurateRip returned [BE342827]
Track 7 cannot be verified as accurate (confidence 1) [104EEC11], AccurateRip returned [129C7E19]
Track 8 cannot be verified as accurate (confidence 1) [06415B88], AccurateRip returned [9F1AFC6F]
Track 9 cannot be verified as accurate (confidence 1) [993540B0], AccurateRip returned [28E06DAD]
Track 10 cannot be verified as accurate (confidence 1) [5F01D15A], AccurateRip returned [AB022B7B]
Track 11 cannot be verified as accurate (confidence 1) [29A99465], AccurateRip returned [B278CCA5]
Track 12 cannot be verified as accurate (confidence 1) [20ADF218], AccurateRip returned [F418E4D4]
No tracks could be verified as accurate
You may have a different pressing from the one(s) in the database
End of status report

[571.6 MB] Скачать / Download