(Black Metal) Firth of Damnation - Carpe Diem - 2008, FLAC (image+.cue), lossless - Скачать

Жанр: Black Metal
Год выпуска диска: 2008
Производитель диска: USA, Candarian Demon Productions (SLAIN008)
Аудио кодек: FLAC
Тип рипа: image+.cue,Test&Copy
Битрейт аудио: lossless
Продолжительность: 00:42:59
Трэклист:
01. An Awakening Disharmony (03:16)
02. Unraveling the Mischief (02:43)
03. Day Dreams To Nightmares (04:32)
04. No Fate But What We Make (02:47)
05. Undrempt Rapture (03:11)
06. The Burning Of April (02:37)
07. Impending Demise (05:06)
08. The Art Of Day To Night (03:13)
09. Forever In the Flame (02:50)
10. Under Deaths Haven (06:06)
11. Carpe Diem (04:08)
12. Final Moments (02:30)

скачать, композиции, песни, трек, cd, торрент, torrent, дискография, lossless, музыка, бесплатно, альбом, metal, альбом, rock, download, рок, soundtrack, метал, mp3, высокое качество

Exact Audio Copy V0.99 prebeta 5 from 4. May 2009
EAC extraction logfile from 17. December 2009, 19:39
Firth of Damnation / Carpe Diem
Used drive : PIONEER DVD-RW DVR-112D Adapter: 0 ID: 0
Read mode : Secure
Utilize accurate stream : Yes
Defeat audio cache : Yes
Make use of C2 pointers : No
Read offset correction : 48
Overread into Lead-In and Lead-Out : No
Fill up missing offset samples with silence : Yes
Delete leading and trailing silent blocks : No
Null samples used in CRC calculations : Yes
Used interface : Native Win32 interface for Win NT & 2000
Used output format : User Defined Encoder
Selected bitrate : 128 kBit/s
Quality : High
Add ID3 tag : No
Command line compressor : C:\Program Files (x86)\Exact Audio Copy\Flac\flac.exe
Additional command line options : -8 -V -T "ARTIST=%a" -T "TITLE=%t" -T "ALBUM=%g" -T "DATE=%y" -T "TRACKNUMBER=%n" -T "GENRE=%m" -T "COMMENT=EAC FLAC -8" %s
TOC of the extracted CD
Track | Start | Length | Start sector | End sector
---------------------------------------------------------
1 | 0:00.00 | 3:16.66 | 0 | 14765
2 | 3:16.66 | 2:42.18 | 14766 | 26933
3 | 5:59.09 | 4:31.68 | 26934 | 47326
4 | 10:31.02 | 2:47.68 | 47327 | 59919
5 | 13:18.70 | 3:10.52 | 59920 | 74221
6 | 16:29.47 | 2:36.74 | 74222 | 85995
7 | 19:06.46 | 5:06.07 | 85996 | 108952
8 | 24:12.53 | 3:12.60 | 108953 | 123412
9 | 27:25.38 | 2:50.08 | 123413 | 136170
10 | 30:15.46 | 6:05.61 | 136171 | 163606
11 | 36:21.32 | 4:08.41 | 163607 | 182247
12 | 40:29.73 | 2:29.42 | 182248 | 193464
Range status and errors
Selected range
Filename G:\Torrent\Firth of Damnation - Carpe Diem (2008)\Firth of Damnation - Carpe Diem (2008).wav
Peak level 100.0 %
Range quality 100.0 %
Test CRC 4550C5EC
Copy CRC 4550C5EC
Copy OK
No errors occurred
AccurateRip summary
Track 1 not present in database
Track 2 not present in database
Track 3 not present in database
Track 4 not present in database
Track 5 not present in database
Track 6 not present in database
Track 7 not present in database
Track 8 not present in database
Track 9 not present in database
Track 10 not present in database
Track 11 not present in database
Track 12 not present in database
None of the tracks are present in the AccurateRip database
End of status report



Цитата:
“Carpe Diem” is the second full-length from Firth of Damnation, the one-man operation of Nazgul Vathron (who once played with assorted Chaos Moon members in a cult US underground act called In Ruins).
He hails from Nashville, Tennessee but eschews the evil Country & Western mentality associated with that godforsaken outpost in favour of the even more insane breed of music that is raw black metal.
With atmospheric, ambient touches, I might add.
As with all Candarian Demon releases, “Carpe Diem” is limited to 1,000 copies.

[247.9 MB] Скачать / Download