(Black Metal) Funeral Winds - Koude Haat - 2004, APE (image+.cue), lossless - Скачать

Жанр: Black Metal
Год выпуска диска: 2004
Производитель диска: Death To Mankind records (Spain)
Аудио кодек: APE
Тип рипа: image+.cue
Битрейт аудио: lossless
Продолжительность: 36:26
Трэклист:
1. When The Funeral Winds Cry For Revenge 05:10
2. Soul Harvest 03:37
3. Koude Haat 04:07
4. Carnage In The Temple Of Jerusalem 04:18
5. From The Depth Of The Earth 03:41
6. The Wicked Are The Wise 04:32
7. Dawn Of The Bestial Bloodshed 03:07
8. The Beast Within 03:48
9. Raised By The Fury Of The Ancient Ones 04:05
Доп. информация:
Hellchrist Xul - Guitar, Vocals
Balgradon Xul - Drums
RSD Xul - Bass

дискография, rock, torrent, download, metal, песни, mp3, soundtrack, cd, lossless, метал, альбом, скачать, композиции, рок, альбом, высокое качество, бесплатно, торрент, трек, музыка

Exact Audio Copy V0.99 prebeta 1 from 25. May 2007
Отчёт EAC об извлечении, выполненном 26. апреля 2009, 19:14
Funeral Winds / Koude Haat
Дисковод: HL-DT-STDVD-RAM GH22NP20 Adapter: 0 ID: 0
Режим чтения : Достоверность
Использование точного потока : Да
Отключение кэша аудио : Да
Использование указателей C2 : Нет
Коррекция смещения при чтении : 102
Способность читать области Lead-in и Lead-out : Нет
Заполнение пропущенных сэмплов тишиной : Да
Удаление блоков с тишиной в начале и конце : Нет
Интерфейс : Встроенный Win32-интерфейс для Win NT/2000
Выходной формат : Внутренние WAV-операции
Формат сэмплов : 44.100 Гц; 16 бит; стерео
TOC извлечённого CD
Трек | Старт | Длительность | Начальный сектор | Конечный сектор
---------------------------------------------------------------------
1 | 0:00.00 | 5:10.09 | 0 | 23258
2 | 5:10.09 | 3:37.33 | 23259 | 39566
3 | 8:47.42 | 4:07.12 | 39567 | 58103
4 | 12:54.54 | 4:17.65 | 58104 | 77443
5 | 17:12.44 | 3:41.29 | 77444 | 94047
6 | 20:53.73 | 4:31.54 | 94048 | 114426
7 | 25:25.52 | 3:07.17 | 114427 | 128468
8 | 28:32.69 | 3:48.17 | 128469 | 145585
9 | 32:21.11 | 4:04.63 | 145586 | 163948
Характеристики диапазона извлечения и сообщения об ошибках
Выбранный диапазон
Имя файла C:\Documents and Settings\Администратор\Рабочий стол\Аудио\Funeral Winds - Koude Haat.wav
Пиковый уровень 100.0 %
Качество диапазона 99.9 %
CRC копии 5EBFA6F0
Копирование... OK
Ошибок не произошло
Конец отчёта

[315.9 MB] Скачать / Download