(Black Metal) Furia - Księżyc milczy luty (Ksiezyc milczy luty) - 2016, FLAC (image+.cue), lossless - Скачать

Księżyc milczy luty

Жанр: Black Metal
Носитель: CD
Страна-производитель диска: Poland
Год издания: 2016
Издатель: Pagan Records
Номер по каталогу: MOON 107
Страна: Poland (Katowice)
Аудиокодек: FLAC (*.flac)
Тип рипа: image+.cue
Битрейт аудио: lossless
Продолжительность: 00:43:39
Источник: Original CD
Наличие сканов: да

Треклист:
1. Za ćmą, w dym - 06:45
2. Ciało - 07:14
3. Tam jest tu - 08:26
4. Grzej - 08:29
5. Zabieraj łapska - 06:45
6. Zwykłe czary wieją - 06:00

бесплатно, rock, metal, музыка, метал, дискография, торрент, mp3, альбом, cd, альбом, высокое качество, песни, soundtrack, трек, lossless, скачать, download, рок, torrent, композиции

 Exact Audio Copy V1.3 from 2. September 2016
Отчёт EAC об извлечении, выполненном 11. апреля 2017, 13:42
Furia / Księżyc milczy luty
Дисковод: Optiarc DVD RW AD-7283S Adapter: 1 ID: 0
Режим чтения : Достоверность
Использование точного потока : Да
Отключение кэша аудио : Да
Использование указателей C2 : Нет
Коррекция смещения при чтении : 48
Способность читать области Lead-in и Lead-out : Нет
Заполнение пропущенных сэмплов тишиной : Да
Удаление блоков с тишиной в начале и конце : Нет
При вычислениях CRC использовались нулевые сэмплы : Да
Интерфейс : Встроенный Win32-интерфейс для Win NT/2000
Выходной формат : Пользовательский кодировщик
Выбранный битрейт : 1024 kBit/s
Качество : Высокий
Добавление ID3-тега : Нет
Утилита сжатия : C:\Program Files (x86)\Exact Audio Copy\Flac\flac.exe
Дополнительные параметры : -V -8 -T "Date=%year%" -T "Genre=%genre%" %source%
TOC извлечённого CD
Трек | Старт | Длительность | Начальный сектор | Конечный сектор
---------------------------------------------------------------------
1 | 0:00.00 | 6:45.54 | 0 | 30428
2 | 6:45.54 | 7:14.43 | 30429 | 63021
3 | 14:00.22 | 8:26.16 | 63022 | 100987
4 | 22:26.38 | 8:29.31 | 100988 | 139193
5 | 30:55.69 | 6:45.57 | 139194 | 169625
6 | 37:41.51 | 6:00.01 | 169626 | 196626
Характеристики диапазона извлечения и сообщения об ошибках
Выбранный диапазон
Имя файла D:\Yourson\-Morgul-\Furia\2016 - Księżyc milczy luty\Furia - Księżyc milczy luty.wav
Пиковый уровень 100.0 %
Скорость извлечения 3.9 X
Качество диапазона 100.0 %
CRC теста D5190935
CRC копии D5190935
Копирование... OK
Ошибок не произошло
AccurateRip: сводка
Трек 1 : извлечено точно (доверие 3) [8C708578] (AR v2)
Трек 2 : извлечено точно (доверие 3) [9F3DB459] (AR v2)
Трек 3 : извлечено точно (доверие 3) [4F92CB1F] (AR v2)
Трек 4 : извлечено точно (доверие 3) [92A30AA2] (AR v2)
Трек 5 : извлечено точно (доверие 3) [CCE45C62] (AR v2)
Трек 6 : извлечено точно (доверие 3) [AF1825B6] (AR v2)
Все треки извлечены точно
Конец отчёта
---- CUETools DB Plugin V2.1.6
[CTDB TOCID: WkgNhMqDXBBfpjfJ2EOVBgXacZc-] found
Submit result: WkgNhMqDXBBfpjfJ2EOVBgXacZc- has been confirmed
Track | CTDB Status
1 | (16/16) Accurately ripped
2 | (16/16) Accurately ripped
3 | (16/16) Accurately ripped
4 | (16/16) Accurately ripped
5 | (16/16) Accurately ripped
6 | (16/16) Accurately ripped
==== Контрольная сумма отчёта 8BB72588019B693399F38A4EA75C3FE7228C4C7DE7AD37D60DEF11160A2A5968 ====
 AUDIOCHECKER v2.0 beta (build 457) - by Dester - [email protected]
~~~~~~~~~~~~~~~~~~~~~~~~~~~~~~~~~~
-=== DO NOT EDIT THIS FILE! ===-
Path: ...\2016 - Ksiezyc milczy luty
1 -=- Furia - Ksiezyc milczy luty.flac -=- CDDA (100%)
73076852
Sars - Bass, Vocals (additional)
Namtar - Drums
Nihil - Vocals, Guitars, Lyrics
A - Guitars

[331.5 MB] Скачать / Download