(Black Metal) Goatmoon - Finnish Steel Storm - 2007, FLAC (image+.cue), lossless - Скачать

Жанр: Black Metal
Страна-производитель диска: Finland
Год издания диска: 2007
Издатель (лейбл): Werewolf Records
Номер по каталогу: EVIL-009
Страна: Finland
Аудиокодек: FLAC (*.flac)
Тип рипа: image+.cue
Битрейт аудио: lossless
Продолжительность: 38:53
Источник (релизер): CD
Наличие сканов в содержимом раздачи: да
Треклист:
1. Eclipsed by Raven Wings
2. Alone
3. Bitter Winter of Depression
4. Der Sieg des Ziegenmondes
5. Finnish Steel Storm
6. Immortal's Winter
7. Murder, Murder Glorious
8. Mythical Story (Draco cover)
9. Nyt ei Kristus auta
10. Forest of my Native Soil

metal, дискография, альбом, альбом, download, композиции, высокое качество, музыка, песни, soundtrack, torrent, трек, rock, скачать, бесплатно, mp3, cd, рок, торрент, метал, lossless

 Exact Audio Copy V1.0 beta 1 from 15. November 2010
EAC extraction logfile from 30. June 2011, 22:29
Goatmoon / Finnish Steel Storm
Used drive : Optiarc DVD RW AD-7540A Adapter: 1 ID: 0
Read mode : Secure
Utilize accurate stream : Yes
Defeat audio cache : Yes
Make use of C2 pointers : No
Read offset correction : 48
Overread into Lead-In and Lead-Out : No
Fill up missing offset samples with silence : Yes
Delete leading and trailing silent blocks : No
Null samples used in CRC calculations : No
Used interface : Native Win32 interface for Win NT & 2000
Used output format : User Defined Encoder
Selected bitrate : 768 kBit/s
Quality : High
Add ID3 tag : No
Command line compressor : C:\Program Files\Exact Audio Copy\FLAC\FLAC.EXE
Additional command line options : -8 -V %s
TOC of the extracted CD
Track | Start | Length | Start sector | End sector
---------------------------------------------------------
1 | 0:00.00 | 3:24.14 | 0 | 15313
2 | 3:24.14 | 2:40.22 | 15314 | 27335
3 | 6:04.36 | 4:15.48 | 27336 | 46508
4 | 10:20.09 | 4:14.72 | 46509 | 65630
5 | 14:35.06 | 6:42.18 | 65631 | 95798
6 | 21:17.24 | 2:55.59 | 95799 | 108982
7 | 24:13.08 | 3:11.16 | 108983 | 123323
8 | 27:24.24 | 3:04.12 | 123324 | 137135
9 | 30:28.36 | 2:59.41 | 137136 | 150601
10 | 33:28.02 | 5:25.10 | 150602 | 174986
Range status and errors
Selected range
Filename D:\muzik\Goatmoon - Finnish Steel Storm.wav
Peak level 98.8 %
Extraction speed 0.2 X
Range quality 100.0 %
Test CRC DA6A324E
Copy CRC DA6A324E
Copy OK
No errors occurred
AccurateRip summary
Track 1 accurately ripped (confidence 1) [575BAEB2]
Track 2 accurately ripped (confidence 1) [4975CCF9]
Track 3 accurately ripped (confidence 1) [CDCA9996]
Track 4 accurately ripped (confidence 1) [50B5C546]
Track 5 accurately ripped (confidence 1) [09A36F7B]
Track 6 accurately ripped (confidence 1) [9FF8670E]
Track 7 accurately ripped (confidence 1) [BFC6BCE8]
Track 8 accurately ripped (confidence 1) [7976568C]
Track 9 accurately ripped (confidence 1) [3C57814E]
Track 10 accurately ripped (confidence 1) [9EEC1D50]
All tracks accurately ripped
End of status report
==== Log checksum 30280FE48031660E834A4381501554F011EF049A474BE83409023E1285DD59D6 ====

[294.9 MB] Скачать / Download