(Black Metal) Gosforth - Hornlust - 2006, FLAC (image+.cue) lossless - Скачать

Жанр: Black Metal
Страна-производитель диска: USA
Год издания диска: 2006
Издатель (лейбл): Blackmetal.com
Номер по каталогу: BMC66629CD
Страна: Italy
Аудио кодек: FLAC (*.flac)
Тип рипа: image+.cue
Битрейт аудио: lossless
Продолжительность: 35:53
Источник (релизер): Собственный рип
Наличие сканов в содержимом раздачи: + (600 dpi)
Треклист:
1. A Dead Soul Lays in My Flesh 05:12
2. Eternal Curse 06:14
3. Hornlust 05:08
4. Morbid Suicide Desire 04:55
5. Thee... We Adore 05:02
6. Temptation Chalice 04:06
7. From Fetus to the Coffin 05:16

mp3, torrent, бесплатно, альбом, песни, трек, рок, альбом, download, композиции, высокое качество, скачать, rock, музыка, cd, soundtrack, метал, дискография, lossless, metal, торрент

 Exact Audio Copy V1.0 beta 1 from 15. November 2010
EAC extraction logfile from 7. March 2011, 17:38
Gosforth / Hornlust
Used drive : PIONEER DVD-RW DVR-112D Adapter: 0 ID: 0
Read mode : Secure
Utilize accurate stream : Yes
Defeat audio cache : Yes
Make use of C2 pointers : No
Read offset correction : 48
Overread into Lead-In and Lead-Out : No
Fill up missing offset samples with silence : Yes
Delete leading and trailing silent blocks : No
Null samples used in CRC calculations : Yes
Used interface : Native Win32 interface for Win NT & 2000
Used output format : User Defined Encoder
Selected bitrate : 128 kBit/s
Quality : High
Add ID3 tag : No
Command line compressor : C:\Program Files (x86)\FLAC\flac.exe
Additional command line options : -8 -V -T "ARTIST=%a" -T "TITLE=%t" -T "ALBUM=%g" -T "DATE=%y" -T "TRACKNUMBER=%n" -T "TOTALTRACKS=%x" -T "GENRE=%m" -T "ALBUM ARTIST=%v" -T "ALBUMARTIST=%v" -T "COMMENT=EAC V 1.0 beta 1, Secure Mode, Test & Copy, AccurateRi
TOC of the extracted CD
Track | Start | Length | Start sector | End sector
---------------------------------------------------------
1 | 0:00.00 | 5:12.45 | 0 | 23444
2 | 5:12.45 | 6:14.09 | 23445 | 51503
3 | 11:26.54 | 5:08.16 | 51504 | 74619
4 | 16:34.70 | 4:54.56 | 74620 | 96725
5 | 21:29.51 | 5:01.74 | 96726 | 119374
6 | 26:31.50 | 4:05.49 | 119375 | 137798
7 | 30:37.24 | 5:16.06 | 137799 | 161504
Range status and errors
Selected range
Filename C:\EACrip\Gosforth - Hornlust (2006)\Gosforth - Hornlust.wav
Peak level 100.0 %
Extraction speed 0.9 X
Range quality 100.0 %
Test CRC CA2E19C3
Copy CRC CA2E19C3
Copy OK
No errors occurred
AccurateRip summary
Track 1 accurately ripped (confidence 1) [BC55F1EE]
Track 2 accurately ripped (confidence 1) [D9C3F0FE]
Track 3 accurately ripped (confidence 1) [27A75A01]
Track 4 accurately ripped (confidence 1) [4F53D4F6]
Track 5 accurately ripped (confidence 1) [62235CA2]
Track 6 accurately ripped (confidence 1) [0C572D45]
Track 7 accurately ripped (confidence 1) [F0253F64]
All tracks accurately ripped
End of status report
==== Log checksum FF1AD3E91F5C024B3C6C53AF26B7C7CBA85AFDA775B3F7E803E9E216AE35DD8A ====
 AUDIOCHECKER v2.0 beta (build 457) - by Dester - [email protected]
~~~~~~~~~~~~~~~~~~~~~~~~~~~~~~~~~~
Started at: понедельник, 07. 03. 2011. - 18:35.46
1 file found
1 -===- C:\EACrip\Gosforth - Hornlust (2006)\Gosforth - Hornlust.flac
Extracted successfully
Conclusion: this track is CDDA with probability 99%
Tempfile successfully deleted.
Finished at: понедельник, 07. 03. 2011. - 18:39.43 (operation time: 0:03.57)
Spectrogram
1. A Dead Soul Lays in My Flesh 05:12

2. Eternal Curse 06:14

3. Hornlust 05:08

4. Morbid Suicide Desire 04:55

5. Thee... We Adore 05:02

6. Temptation Chalice 04:06

7. From Fetus to the Coffin 05:16
1. A Dead Soul Lays in My Flesh 05:12

2. Eternal Curse 06:14

3. Hornlust 05:08

4. Morbid Suicide Desire 04:55

5. Thee... We Adore 05:02

6. Temptation Chalice 04:06

7. From Fetus to the Coffin 05:16

[281.3 MB] Скачать / Download