(Black Metal) Ill Omen - Compendium Melificarum - 2010, FLAC (image+.cue) lossless - Скачать

Жанр: Black Metal
Страна-производитель диска: Sweden
Год издания диска: 2010
Издатель (лейбл): Total Holocaust Records
Номер по каталогу: THR 132
Страна: Australia
Аудио кодек: FLAC (*.flac)
Тип рипа: image+.cue ,Test & Copy
Битрейт аудио: lossless
Продолжительность: 01:10:27
Источник:Original CD
Наличие сканов в содержимом раздачи: да
Треклист:
01. Adverse (06:02)
02. Crimson Temples (04:58)
03. Black Moon Harrow (02:27)
04. Tenebrous (04:22)
05. Ash & Wound (06:23)
06. Three Suns (03:38)
07. Chants of the Darkened Sceptre *
08. Black Esoterica *
09. Scribes of the Unlight (02:30)
10. Burning Stars (05:56)
11. The Serpent / The Eye (02:02)
12. Harvest (05:05)
13. Ruptured Earth Ablaze (02:38)
14. Revelations of Suffering and Flesh (08:53)
15. Adverse Order (02:35)
16. Etched in Ash and Twilight (04:13)
17. Black Prophets of Misery (02:01)
18. Trumpets of Oblivion (06:38)

альбом, композиции, высокое качество, бесплатно, метал, рок, soundtrack, музыка, mp3, альбом, торрент, дискография, скачать, трек, rock, download, torrent, cd, metal, lossless, песни

 Exact Audio Copy V1.0 beta 1 from 15. November 2010
EAC extraction logfile from 28. December 2010, 22:38
Ill Omen / Compendium Melificarum
Used drive : PIONEER DVD-RW DVR-112D Adapter: 0 ID: 0
Read mode : Secure
Utilize accurate stream : Yes
Defeat audio cache : Yes
Make use of C2 pointers : No
Read offset correction : 48
Overread into Lead-In and Lead-Out : No
Fill up missing offset samples with silence : Yes
Delete leading and trailing silent blocks : No
Null samples used in CRC calculations : Yes
Used interface : Native Win32 interface for Win NT & 2000
Used output format : User Defined Encoder
Selected bitrate : 128 kBit/s
Quality : High
Add ID3 tag : No
Command line compressor : C:\Program Files (x86)\Exact Audio Copy\FLAC\FLAC.EXE
Additional command line options : -8 -V -T "ARTIST=%a" -T "TITLE=%t" -T "ALBUM=%g" -T "DATE=%y" -T "TRACKNUMBER=%n" -T "GENRE=%m" -T "COMMENT=EAC FLAC -8" %s
TOC of the extracted CD
Track | Start | Length | Start sector | End sector
---------------------------------------------------------
1 | 0:00.00 | 6:02.13 | 0 | 27162
2 | 6:02.13 | 4:58.29 | 27163 | 49541
3 | 11:00.42 | 2:27.40 | 49542 | 60606
4 | 13:28.07 | 4:22.56 | 60607 | 80312
5 | 17:50.63 | 6:23.09 | 80313 | 109046
6 | 24:13.72 | 3:38.06 | 109047 | 125402
7 | 27:52.03 | 2:30.47 | 125403 | 136699
8 | 30:22.50 | 5:56.63 | 136700 | 163462
9 | 36:19.38 | 2:02.03 | 163463 | 172615
10 | 38:21.41 | 5:05.36 | 172616 | 195526
11 | 43:27.02 | 2:38.12 | 195527 | 207388
12 | 46:05.14 | 8:53.09 | 207389 | 247372
13 | 54:58.23 | 2:35.11 | 247373 | 259008
14 | 57:33.34 | 4:13.04 | 259009 | 277987
15 | 61:46.38 | 2:01.74 | 277988 | 287136
16 | 63:48.37 | 6:38.49 | 287137 | 317035
Range status and errors
Selected range
Filename D:\Torrent\Ill Omen - Compendium Melificarum\Ill Omen - Compendium Melificarum.wav
Peak level 97.9 %
Extraction speed 0.7 X
Range quality 99.9 %
Test CRC 96726649
Copy CRC 96726649
Copy OK
No errors occurred
AccurateRip summary
Track 1 not present in database
Track 2 not present in database
Track 3 not present in database
Track 4 not present in database
Track 5 not present in database
Track 6 not present in database
Track 7 not present in database
Track 8 not present in database
Track 9 not present in database
Track 10 not present in database
Track 11 not present in database
Track 12 not present in database
Track 13 not present in database
Track 14 not present in database
Track 15 not present in database
Track 16 not present in database
None of the tracks are present in the AccurateRip database
End of status report
==== Log checksum C79FDD91406B3DD6D7D000E540F008A168880E694C7049454CFE40AC69A7F93F ====
Digipak limited to 500 copies.
Released in co-operation with Adverse Order Music.
Tracks 1-6 from "Ill Omen" demo
Tracks 7-11 from "Black Esoterica" demo
Tracks 12-18 from "Adverse Order" demo
С диском походу косяк, песен в буклете 18, а реально 16, информация о треклисте с The Metal Archives.
- IV - - everything

[415 MB] Скачать / Download