(Black Metal) Inferno - Uctívání Temné Zuřivosti - 2008, FLAC (image+.cue), lossless - Скачать

Жанр: Black Metal
Страна-производитель диска: Germany
Год издания диска: 2008
Издатель (лейбл): Undercover Records
Номер по каталогу: UCR CD 060-1
Страна: Czech Republic
Аудиокодек: FLAC (*.flac)
Тип рипа: image+.cue
Битрейт аудио: lossless
Продолжительность: 42:03
Источник (релизер): Original CD
Наличие сканов в содержимом раздачи: да
Треклист:
1. Intro - Nekonečné hlasy z temnoty 04:02
2. Když zima přichází 03:22
3. Vidím v plamenech tvou víru zkrze černý kov 04:15
4. Uctívání temné zuřivosti 03:43
5. Píseň krve, ohně a odporu 01:48
6. Tyranie nesvatého umění 05:29
7. Apokalyptický oheň pro novou etapu života 05:05
8. Nejtemnejší, krvežíznivý 04:19
9. Ve vřavě války 04:10
10. Peklo na zemi 03:51
11. Outro - Požitek ze smrti a pekla 01:59

рок, mp3, альбом, торрент, высокое качество, бесплатно, rock, метал, metal, cd, композиции, скачать, песни, lossless, альбом, soundtrack, torrent, дискография, download, трек, музыка

 Exact Audio Copy V1.0 beta 2 from 29. April 2011
EAC extraction logfile from 1. December 2011, 20:15
Inferno / Uctívání temné zuřivosti
Used drive : ASUS DRW-24B3ST Adapter: 3 ID: 1
Read mode : Secure
Utilize accurate stream : Yes
Defeat audio cache : Yes
Make use of C2 pointers : No
Read offset correction : 6
Overread into Lead-In and Lead-Out : No
Fill up missing offset samples with silence : Yes
Delete leading and trailing silent blocks : No
Null samples used in CRC calculations : Yes
Used interface : Native Win32 interface for Win NT & 2000
Used output format : User Defined Encoder
Selected bitrate : 128 kBit/s
Quality : High
Add ID3 tag : No
Command line compressor : C:\Program Files (x86)\Exact Audio Copy\Flac\flac.exe
Additional command line options : -8 -V %source%
TOC of the extracted CD
Track | Start | Length | Start sector | End sector
---------------------------------------------------------
1 | 0:00.00 | 4:02.24 | 0 | 18173
2 | 4:02.24 | 3:23.08 | 18174 | 33406
3 | 7:25.32 | 4:15.69 | 33407 | 52600
4 | 11:41.26 | 3:44.39 | 52601 | 69439
5 | 15:25.65 | 1:49.38 | 69440 | 77652
6 | 17:15.28 | 5:30.11 | 77653 | 102413
7 | 22:45.39 | 5:05.67 | 102414 | 125355
8 | 27:51.31 | 4:19.67 | 125356 | 144847
9 | 32:11.23 | 4:10.37 | 144848 | 163634
10 | 36:21.60 | 3:51.27 | 163635 | 180986
11 | 40:13.12 | 2:00.05 | 180987 | 189991
Range status and errors
Selected range
Filename C:\Users\vvb05\Desktop\Аудио\Inferno - Uctívání temné zuřivosti.wav
Peak level 97.8 %
Extraction speed 5.5 X
Range quality 100.0 %
Test CRC DD26EE2F
Copy CRC DD26EE2F
Copy OK
No errors occurred
AccurateRip summary
Track 1 not present in database
Track 2 not present in database
Track 3 not present in database
Track 4 not present in database
Track 5 not present in database
Track 6 not present in database
Track 7 not present in database
Track 8 not present in database
Track 9 not present in database
Track 10 not present in database
Track 11 not present in database
None of the tracks are present in the AccurateRip database
End of status report
==== Log checksum 734BF9574C5DE767FAEBA36BBA5B59812B1B796901DED80EF30C4A04C1E490C5 ====

[311.6 MB] Скачать / Download