(Black Metal) Koldbrann - Дискография (2003-2008), FLAC (image+.cue) lossless - Скачать

Koldbrann - Дискография (2003-2008) Жанр: Black Metal
Тема лирики: Death, Sickness, Hatred, Anti-religion
Страна: Norway (Drammen)
Аудио кодек: FLAC (*.flac)
Тип рипа: image+.cue
Битрейт аудио: lossless
Источник: Original CDs
Наличие сканов в содержимом раздачи: да

высокое качество, песни, дискография, cd, rock, soundtrack, метал, альбом, mp3, композиции, download, torrent, lossless, торрент, бесплатно, музыка, альбом, metal, рок, скачать, трек

Страна-производитель диска: Germany
Год издания диска: 2004
Издатель (лейбл): Twilight-Vertrieb Records
Номер по каталогу: twilight 784-429
Продолжительность: 48:17
Трэклист:
01. Fortapelse i Svovel og Helvetesild (5:58)
02. Kaosmanifest (5:10)
03. Koldbrann (3:33)
04. Liturgi i Dissonans (5:04)
05. Fra Allfars Veg (2:55)
06. Korpus Sepsis (5:17)
07. Den Endelige (6:54)
08. Phlegetons Bredder (7:46)
09. Inkvisitor Renegat (5:43)
The Nekrotik Inkvisition is executed by:
Mannevond - All vokills, and guitar on tracks 8 and 9
Kvass - Mainguitars on tracks 1 - 7, bass on tracks 4 and 6
Fordervelse - Drums and Goatbell
Jonas aus Slavia - 2nd guitar on tracks 1 - 3 and 7 - 9, bass on tracks 1, 2 and 5
... with backup from:
Kjottring - Bass on tracks 3, 7, 8 and 9
Voidar - 2.guitar riffcontribution on tracks 8 and 9
Drums recorded live in studio 1st of February. Mainguitars recordead 6th - 9th of February. At Det Nekrotiske Kammer.
2nd guitar and bass recordead from the 14th to the 17th of February. Vokills recordead 25th and 26th of February. In NekroTrygd Studios.
Recordead in the year of the Goat, 2003.
Mixed and produced by NGZM and KOLDBRANN in NekroTrygd Studios.
Engineers: Voidar and NGZM.
Mastered at Strype Audio by Tom Kvеlsvoll.
KOLDBRANN-logo by NGZM.
Layout by KOLDBRANN.
Лог создания рипа:
Exact Audio Copy V0.99 prebeta 5 from 4. May 2009
EAC extraction logfile from 2. October 2010, 22:53
Koldbrann / Nekrotisk Inkvistion
Used drive : TEAC CD-W516EB Adapter: 0 ID: 0
Read mode : Secure
Utilize accurate stream : Yes
Defeat audio cache : Yes
Make use of C2 pointers : No
Read offset correction : 685
Overread into Lead-In and Lead-Out : No
Fill up missing offset samples with silence : Yes
Delete leading and trailing silent blocks : No
Null samples used in CRC calculations : Yes
Used interface : Installed external ASPI interface
Used output format : User Defined Encoder
Selected bitrate : 128 kBit/s
Quality : High
Add ID3 tag : No
Command line compressor : C:\Program Files\Exact Audio Copy\Flac\flac.exe
Additional command line options : -V -8 -T "artist=%a" -T "title=%t" -T "album=%g" -T "date=%y" -T "tracknumber=%n" -T "genre=%m" %s
TOC of the extracted CD
Track | Start | Length | Start sector | End sector
---------------------------------------------------------
1 | 0:00.00 | 5:57.67 | 0 | 26841
2 | 5:57.67 | 5:10.34 | 26842 | 50125
3 | 11:08.26 | 3:32.44 | 50126 | 66069
4 | 14:40.70 | 5:03.59 | 66070 | 88853
5 | 19:44.54 | 2:55.37 | 88854 | 102015
6 | 22:40.16 | 5:17.33 | 102016 | 125823
7 | 27:57.49 | 6:54.19 | 125824 | 156892
8 | 34:51.68 | 7:46.27 | 156893 | 191869
9 | 42:38.20 | 5:43.32 | 191870 | 217626
Range status and errors
Selected range
Filename D:\CD\Rips\Koldbrann - Nekrotisk Inkvistion (2003)\Koldbrann - Nekrotisk Inkvistion.wav
Peak level 98.0 %
Range quality 100.0 %
Test CRC 65A090ED
Copy CRC 65A090ED
Copy OK
No errors occurred
AccurateRip summary
Track 1 accurately ripped (confidence 2) [DAEB7AE5]
Track 2 accurately ripped (confidence 2) [B0A69762]
Track 3 accurately ripped (confidence 2) [E609BF87]
Track 4 accurately ripped (confidence 2) [BE2C1BF8]
Track 5 accurately ripped (confidence 2) [D92977B7]
Track 6 accurately ripped (confidence 2) [1B9AC7B0]
Track 7 accurately ripped (confidence 2) [FCA675B8]
Track 8 accurately ripped (confidence 2) [6C334F9A]
Track 9 accurately ripped (confidence 2) [6077EB3A]
All tracks accurately ripped
End of status report
Exact Audio Copy V0.99 prebeta 5 from 4. May 2009
EAC extraction logfile from 2. October 2010, 22:53
Koldbrann / Nekrotisk Inkvistion
Used drive : TEAC CD-W516EB Adapter: 0 ID: 0
Read mode : Secure
Utilize accurate stream : Yes
Defeat audio cache : Yes
Make use of C2 pointers : No
Read offset correction : 685
Overread into Lead-In and Lead-Out : No
Fill up missing offset samples with silence : Yes
Delete leading and trailing silent blocks : No
Null samples used in CRC calculations : Yes
Used interface : Installed external ASPI interface
Used output format : User Defined Encoder
Selected bitrate : 128 kBit/s
Quality : High
Add ID3 tag : No
Command line compressor : C:\Program Files\Exact Audio Copy\Flac\flac.exe
Additional command line options : -V -8 -T "artist=%a" -T "title=%t" -T "album=%g" -T "date=%y" -T "tracknumber=%n" -T "genre=%m" %s
TOC of the extracted CD
Track | Start | Length | Start sector | End sector
---------------------------------------------------------
1 | 0:00.00 | 5:57.67 | 0 | 26841
2 | 5:57.67 | 5:10.34 | 26842 | 50125
3 | 11:08.26 | 3:32.44 | 50126 | 66069
4 | 14:40.70 | 5:03.59 | 66070 | 88853
5 | 19:44.54 | 2:55.37 | 88854 | 102015
6 | 22:40.16 | 5:17.33 | 102016 | 125823
7 | 27:57.49 | 6:54.19 | 125824 | 156892
8 | 34:51.68 | 7:46.27 | 156893 | 191869
9 | 42:38.20 | 5:43.32 | 191870 | 217626
Range status and errors
Selected range
Filename D:\CD\Rips\Koldbrann - Nekrotisk Inkvistion (2003)\Koldbrann - Nekrotisk Inkvistion.wav
Peak level 98.0 %
Range quality 100.0 %
Test CRC 65A090ED
Copy CRC 65A090ED
Copy OK
No errors occurred
AccurateRip summary
Track 1 accurately ripped (confidence 2) [DAEB7AE5]
Track 2 accurately ripped (confidence 2) [B0A69762]
Track 3 accurately ripped (confidence 2) [E609BF87]
Track 4 accurately ripped (confidence 2) [BE2C1BF8]
Track 5 accurately ripped (confidence 2) [D92977B7]
Track 6 accurately ripped (confidence 2) [1B9AC7B0]
Track 7 accurately ripped (confidence 2) [FCA675B8]
Track 8 accurately ripped (confidence 2) [6C334F9A]
Track 9 accurately ripped (confidence 2) [6077EB3A]
All tracks accurately ripped
End of status report
Страна-производитель диска: Germany
Год издания диска: 2006
Издатель (лейбл): Twilight-Vertrieb Records
Номер по каталогу: twilight 784-871
Продолжительность: 59:47
Трэклист:
01. Alt er Befengt (6:01)
02. I Suveren Forakt (6:39)
03. Steinet til Jorden (5:58)
04. Djevelens Treskeverk (6:02)
05. Smell of Vitriol (5:45)
06. Moribund (5:37)
07. Av Sjel Stagnert (6:40)
08. Til Skiringsheim (2:14)
09. Fullt Spekter Dominans (4:14)
10. Skvadron (6:43)
11. Bestial Swarm (3:57)
Mannevond - Vocals & guitar
Kvass - Guitar
Fordervelse - Drums
S. Johnskareng - Bass
G. Antonsen - Guitar
Additional guest vocals on 'Bestial Swarm' by Iblis. Introduction on 'Djevelens Treskeverk' by L. Wachtfels.
All music by KOLDBRANN, 2003 - 2006.
Recorded and mixed at JAKs Hell during March and April 2006, engineered by Jens Krabbenhoft.
Mastered at Strype Audio by Tom Kvalsvoll.
Cover by Kim Solve and Trine Paulsen - www.trineogkim.no.
Excerpts from the painting 'The Last Judgement' (c. 1435), by Stephan Lochner.
KOLDBRANN-logo by NGZM.
Лог создания рипа:
Exact Audio Copy V0.99 prebeta 5 from 4. May 2009
EAC extraction logfile from 2. October 2010, 22:08
Koldbrann / Moribund
Used drive : TEAC CD-W516EB Adapter: 0 ID: 0
Read mode : Secure
Utilize accurate stream : Yes
Defeat audio cache : Yes
Make use of C2 pointers : No
Read offset correction : 685
Overread into Lead-In and Lead-Out : No
Fill up missing offset samples with silence : Yes
Delete leading and trailing silent blocks : No
Null samples used in CRC calculations : Yes
Used interface : Installed external ASPI interface
Used output format : User Defined Encoder
Selected bitrate : 128 kBit/s
Quality : High
Add ID3 tag : No
Command line compressor : C:\Program Files\Exact Audio Copy\Flac\flac.exe
Additional command line options : -V -8 -T "artist=%a" -T "title=%t" -T "album=%g" -T "date=%y" -T "tracknumber=%n" -T "genre=%m" %s
TOC of the extracted CD
Track | Start | Length | Start sector | End sector
---------------------------------------------------------
1 | 0:00.00 | 6:01.15 | 0 | 27089
2 | 6:01.15 | 6:39.12 | 27090 | 57026
3 | 12:40.27 | 5:58.05 | 57027 | 83881
4 | 18:38.32 | 6:01.52 | 83882 | 111008
5 | 24:40.09 | 5:44.70 | 111009 | 136878
6 | 30:25.04 | 5:37.23 | 136879 | 162176
7 | 36:02.27 | 6:40.30 | 162177 | 192206
8 | 42:42.57 | 2:14.05 | 192207 | 202261
9 | 44:56.62 | 4:14.01 | 202262 | 221312
10 | 49:10.63 | 6:43.03 | 221313 | 251540
11 | 55:53.66 | 3:56.53 | 251541 | 269293
Range status and errors
Selected range
Filename D:\CD\Rips\Koldbrann - Moribund (2006)\Koldbrann - Moribund.wav
Peak level 97.7 %
Range quality 100.0 %
Test CRC 97B9C203
Copy CRC 97B9C203
Copy OK
No errors occurred
AccurateRip summary
Track 1 accurately ripped (confidence 2) [E42EBE0E]
Track 2 accurately ripped (confidence 2) [B33871E0]
Track 3 accurately ripped (confidence 2) [4ACAA23C]
Track 4 accurately ripped (confidence 2) [D0E75E74]
Track 5 accurately ripped (confidence 2) [A6D1C2E4]
Track 6 accurately ripped (confidence 2) [E267CE93]
Track 7 accurately ripped (confidence 2) [09AE631C]
Track 8 accurately ripped (confidence 2) [18EE2D8B]
Track 9 accurately ripped (confidence 2) [70D7C15E]
Track 10 accurately ripped (confidence 2) [0782043F]
Track 11 accurately ripped (confidence 2) [CA0EA110]
All tracks accurately ripped
End of status report
Exact Audio Copy V0.99 prebeta 5 from 4. May 2009
EAC extraction logfile from 2. October 2010, 22:08
Koldbrann / Moribund
Used drive : TEAC CD-W516EB Adapter: 0 ID: 0
Read mode : Secure
Utilize accurate stream : Yes
Defeat audio cache : Yes
Make use of C2 pointers : No
Read offset correction : 685
Overread into Lead-In and Lead-Out : No
Fill up missing offset samples with silence : Yes
Delete leading and trailing silent blocks : No
Null samples used in CRC calculations : Yes
Used interface : Installed external ASPI interface
Used output format : User Defined Encoder
Selected bitrate : 128 kBit/s
Quality : High
Add ID3 tag : No
Command line compressor : C:\Program Files\Exact Audio Copy\Flac\flac.exe
Additional command line options : -V -8 -T "artist=%a" -T "title=%t" -T "album=%g" -T "date=%y" -T "tracknumber=%n" -T "genre=%m" %s
TOC of the extracted CD
Track | Start | Length | Start sector | End sector
---------------------------------------------------------
1 | 0:00.00 | 6:01.15 | 0 | 27089
2 | 6:01.15 | 6:39.12 | 27090 | 57026
3 | 12:40.27 | 5:58.05 | 57027 | 83881
4 | 18:38.32 | 6:01.52 | 83882 | 111008
5 | 24:40.09 | 5:44.70 | 111009 | 136878
6 | 30:25.04 | 5:37.23 | 136879 | 162176
7 | 36:02.27 | 6:40.30 | 162177 | 192206
8 | 42:42.57 | 2:14.05 | 192207 | 202261
9 | 44:56.62 | 4:14.01 | 202262 | 221312
10 | 49:10.63 | 6:43.03 | 221313 | 251540
11 | 55:53.66 | 3:56.53 | 251541 | 269293
Range status and errors
Selected range
Filename D:\CD\Rips\Koldbrann - Moribund (2006)\Koldbrann - Moribund.wav
Peak level 97.7 %
Range quality 100.0 %
Test CRC 97B9C203
Copy CRC 97B9C203
Copy OK
No errors occurred
AccurateRip summary
Track 1 accurately ripped (confidence 2) [E42EBE0E]
Track 2 accurately ripped (confidence 2) [B33871E0]
Track 3 accurately ripped (confidence 2) [4ACAA23C]
Track 4 accurately ripped (confidence 2) [D0E75E74]
Track 5 accurately ripped (confidence 2) [A6D1C2E4]
Track 6 accurately ripped (confidence 2) [E267CE93]
Track 7 accurately ripped (confidence 2) [09AE631C]
Track 8 accurately ripped (confidence 2) [18EE2D8B]
Track 9 accurately ripped (confidence 2) [70D7C15E]
Track 10 accurately ripped (confidence 2) [0782043F]
Track 11 accurately ripped (confidence 2) [CA0EA110]
All tracks accurately ripped
End of status report
Страна-производитель диска: Germany
Год издания диска: 2008
Издатель (лейбл): Twilight-Vertrieb Records
Номер по каталогу: twilight 784-1478
Продолжительность: 23:37
Трэклист:
01. Opium Fields Forever (5:05)
02. Intifada (3:08)
03. Fredlos (5:42)
04. Avmaktens Isolat (7:09)
05. Bestial Lust (2:35)
Kvass - Guitar
Mannevond - Vocals & guitar
Fordervelse - Drums
S. Johnskareng - Bass
G. Antonsen - Guitar
All music by KOLDBRANN, 2003 - 2008, except BESTIAL LUST by BATHORY (music and lyrics by QUORTHON).
BESTIAL LUST published by BLACK MARK PRODUCTION/NCB.
All KOLDBRANN lyrics by KVASS, except AVMAKTENS ISOLAT by OLDING.
Satanisk sologitar pa AVMAKTENS ISOLAT av TRONDR NEFAS.
Additional guitar on INTIFADA by VOIDAR.
Recorded at GLEMSELENS KJELLER (Mokkakjellern pa Grasmo) and 0579 HJARNIDAUDI, June 2008.
Mixed and engineered by VOIDAR. Mastered by KVALSVOLL.
Cover by TRINE + KIM DESIGN STUDIO.
FREDLOS re-recorded for this release. Originally on LJA/KOLDBRANN split 7" (Aftermath Music, 2003).
BESTIAL LUST recorded for A TRIBUTE FROM THE HORDES TO BATHORY (Black Goat Prod.).
To be released 2008/09. Hail BATHORY.
Лог создания рипа:
Exact Audio Copy V0.99 prebeta 5 from 4. May 2009
EAC extraction logfile from 11. September 2010, 17:37
Koldbrann / Stigma: Pa kant med lived
Used drive : TSSTcorpCDDVDW SH-S223F Adapter: 6 ID: 0
Read mode : Secure
Utilize accurate stream : Yes
Defeat audio cache : Yes
Make use of C2 pointers : No
Read offset correction : 6
Overread into Lead-In and Lead-Out : No
Fill up missing offset samples with silence : Yes
Delete leading and trailing silent blocks : No
Null samples used in CRC calculations : Yes
Used interface : Installed external ASPI interface
Used output format : User Defined Encoder
Selected bitrate : 128 kBit/s
Quality : High
Add ID3 tag : No
Command line compressor : C:\Program Files\Exact Audio Copy\Flac\flac.exe
Additional command line options : -V -8 -T "artist=%a" -T "title=%t" -T "album=%g" -T "date=%y" -T "tracknumber=%n" -T "genre=%m" %s
TOC of the extracted CD
Track | Start | Length | Start sector | End sector
---------------------------------------------------------
1 | 0:00.00 | 5:04.43 | 0 | 22842
2 | 5:04.43 | 3:08.27 | 22843 | 36969
3 | 8:12.70 | 5:42.25 | 36970 | 62644
4 | 13:55.20 | 7:09.00 | 62645 | 94819
5 | 21:04.20 | 2:34.74 | 94820 | 106443
Range status and errors
Selected range
Filename D:\CD\Rips\Koldbrann - Stigma - Pa kant med lived (2008)\Koldbrann - Stigma - Pa kant med lived.wav
Peak level 97.7 %
Range quality 99.9 %
Test CRC 5C9031CB
Copy CRC 5C9031CB
Copy OK
No errors occurred
AccurateRip summary
Track 1 accurately ripped (confidence 1) [ED7B44C3]
Track 2 accurately ripped (confidence 1) [5CF26D2A]
Track 3 accurately ripped (confidence 1) [04CB4D91]
Track 4 accurately ripped (confidence 1) [67703F51]
Track 5 accurately ripped (confidence 1) [0B6527E0]
All tracks accurately ripped
End of status report
Exact Audio Copy V0.99 prebeta 5 from 4. May 2009
EAC extraction logfile from 11. September 2010, 17:37
Koldbrann / Stigma: Pa kant med lived
Used drive : TSSTcorpCDDVDW SH-S223F Adapter: 6 ID: 0
Read mode : Secure
Utilize accurate stream : Yes
Defeat audio cache : Yes
Make use of C2 pointers : No
Read offset correction : 6
Overread into Lead-In and Lead-Out : No
Fill up missing offset samples with silence : Yes
Delete leading and trailing silent blocks : No
Null samples used in CRC calculations : Yes
Used interface : Installed external ASPI interface
Used output format : User Defined Encoder
Selected bitrate : 128 kBit/s
Quality : High
Add ID3 tag : No
Command line compressor : C:\Program Files\Exact Audio Copy\Flac\flac.exe
Additional command line options : -V -8 -T "artist=%a" -T "title=%t" -T "album=%g" -T "date=%y" -T "tracknumber=%n" -T "genre=%m" %s
TOC of the extracted CD
Track | Start | Length | Start sector | End sector
---------------------------------------------------------
1 | 0:00.00 | 5:04.43 | 0 | 22842
2 | 5:04.43 | 3:08.27 | 22843 | 36969
3 | 8:12.70 | 5:42.25 | 36970 | 62644
4 | 13:55.20 | 7:09.00 | 62645 | 94819
5 | 21:04.20 | 2:34.74 | 94820 | 106443
Range status and errors
Selected range
Filename D:\CD\Rips\Koldbrann - Stigma - Pa kant med lived (2008)\Koldbrann - Stigma - Pa kant med lived.wav
Peak level 97.7 %
Range quality 99.9 %
Test CRC 5C9031CB
Copy CRC 5C9031CB
Copy OK
No errors occurred
AccurateRip summary
Track 1 accurately ripped (confidence 1) [ED7B44C3]
Track 2 accurately ripped (confidence 1) [5CF26D2A]
Track 3 accurately ripped (confidence 1) [04CB4D91]
Track 4 accurately ripped (confidence 1) [67703F51]
Track 5 accurately ripped (confidence 1) [0B6527E0]
All tracks accurately ripped
End of status report

[990.5 MB] Скачать / Download