(Black Metal) Morningstar - As the Wolves Howl - 1995 (ep), FLAC (image+.cue), lossless - Скачать

MORNINGSTAR
As the Wolves Howl

Жанр: Black Metal
Год издания диска: 1995
Издатель (лейбл): Wild Rags Records
Номер по каталогу: WRR-063
Страна: Finland
Аудиокодек: FLAC (*.flac)
Тип рипа: image+.cue
Битрейт аудио: lossless
Продолжительность: 20:00
Источник (релизер): MEIN KD
Наличие сканов в содержимом раздачи: да
Треклист:
1. Nocturnal Riding 02:46
2. Forest Of Mysticism 03:38
3. Pagan Martyrs 02:35
4. Surrounded By Strong Wind (Forever Heretic) 03:11
5. Vampire 03:30
6. Power In My Pagan Heart 04:17

дискография, композиции, рок, metal, torrent, трек, музыка, rock, альбом, download, скачать, песни, бесплатно, soundtrack, метал, альбом, высокое качество, lossless, cd, mp3, торрент

 Exact Audio Copy V0.99 prebeta 5 from 4. May 2009
Отчёт EAC об извлечении, выполненном 12. февраля 2012, 23:09
MORNINGSTAR / As the Wolves Howl ...
Дисковод: ASUS DRW-24B3ST Adapter: 5 ID: 0
Режим чтения : Достоверность
Использование точного потока : Да
Отключение кэша аудио : Да
Использование указателей C2 : Нет
Коррекция смещения при чтении : 6
Способность читать области Lead-in и Lead-out : Нет
Заполнение пропущенных сэмплов тишиной : Да
Удаление блоков с тишиной в начале и конце : Нет
При вычислениях CRC использовались нулевые сэмплы : Да
Интерфейс : Установленный внешний ASPI-интерфейс
Выходной формат : Пользовательский кодировщик
Выбранный битрейт : 768 kBit/s
Качество : Высокий
Добавление ID3-тэга : Нет
Утилита сжатия : C:\Program Files\Exact Audio Copy\FLAC\FLAC.EXE
Дополнительные параметры : -6 -V -T "ARTIST=%a" -T "TITLE=%t" -T "ALBUM=%g" -T "DATE=%y" -T "TRACKNUMBER=%n" -T "GENRE=%m" -T "COMMENT=%e" %s -o %d
TOC извлечённого CD
Трек | Старт | Длительность | Начальный сектор | Конечный сектор
---------------------------------------------------------------------
1 | 0:00.00 | 2:46.71 | 0 | 12520
2 | 2:46.71 | 3:38.14 | 12521 | 28884
3 | 6:25.10 | 2:35.56 | 28885 | 40565
4 | 9:00.66 | 3:11.65 | 40566 | 54955
5 | 12:12.56 | 3:30.26 | 54956 | 70731
6 | 15:43.07 | 4:17.26 | 70732 | 90032
Характеристики диапазона извлечения и сообщения об ошибках
Выбранный диапазон
Имя файла G:\ЯОБРАЗА\MORNINGSTAR - As the Wolves Howl ....wav
Пиковый уровень 100.0 %
Качество диапазона 100.0 %
CRC теста 4BF4856E
CRC копии 4BF4856E
Копирование... OK
Ошибок не произошло
AccurateRip: сводка
Трек 1 нет в базе данных
Трек 2 нет в базе данных
Трек 3 нет в базе данных
Трек 4 нет в базе данных
Трек 5 нет в базе данных
Трек 6 нет в базе данных
Ни одного трека нет в базе AccurateRip
Конец отчёта

[123.5 MB] Скачать / Download