(Black Metal) Mortify - The Way of All Flesh - 2011, FLAC (image+.cue), lossless - Скачать

MORTIFY
The Way of All Flesh

Жанр: Black Metal
Год издания: 2011
Издатель (лейбл): Kill Yourself Productions
Номер по каталогу: KILL 013
Страна: Greece
Аудиокодек: FLAC (*.flac)
Тип рипа: image+.cue
Битрейт аудио: lossless
Продолжительность: 41:45
Источник (релизер): μου KD
Наличие сканов в содержимом раздачи: да
Треклист:
1. Nocturne of Souls 06:04
2. The Occult 03:33
3. Schizoid Redeemer 04:05
4. The Awakening and the Triumph 03:29
5. Paroxysm 05:14
6. Gazing in a God's Dream 07:17
7. Of Blood and Ashes (Outro) 01:43
8. Serpentine Moon 04:53
9. Ulterior Quest 05:07

скачать, торрент, бесплатно, mp3, rock, metal, песни, download, музыка, высокое качество, torrent, альбом, lossless, композиции, рок, дискография, soundtrack, альбом, трек, метал, cd

 Exact Audio Copy V0.99 prebeta 5 from 4. May 2009
Отчёт EAC об извлечении, выполненном 29. сентября 2012, 19:57
MORTIFY / The Way of All Flesh
Дисковод: ASUS DRW-24B3ST Adapter: 5 ID: 0
Режим чтения : Достоверность
Использование точного потока : Да
Отключение кэша аудио : Да
Использование указателей C2 : Нет
Коррекция смещения при чтении : 6
Способность читать области Lead-in и Lead-out : Нет
Заполнение пропущенных сэмплов тишиной : Да
Удаление блоков с тишиной в начале и конце : Нет
При вычислениях CRC использовались нулевые сэмплы : Да
Интерфейс : Установленный внешний ASPI-интерфейс
Выходной формат : Пользовательский кодировщик
Выбранный битрейт : 768 kBit/s
Качество : Высокий
Добавление ID3-тэга : Нет
Утилита сжатия : C:\Program Files\Exact Audio Copy\FLAC\FLAC.EXE
Дополнительные параметры : -6 -V -T "ARTIST=%a" -T "TITLE=%t" -T "ALBUM=%g" -T "DATE=%y" -T "TRACKNUMBER=%n" -T "GENRE=%m" -T "COMMENT=%e" %s -o %d
TOC извлечённого CD
Трек | Старт | Длительность | Начальный сектор | Конечный сектор
---------------------------------------------------------------------
1 | 0:00.00 | 5:57.26 | 0 | 26800
2 | 5:57.26 | 3:34.28 | 26801 | 42878
3 | 9:31.54 | 4:10.52 | 42879 | 61680
4 | 13:42.31 | 3:39.17 | 61681 | 78122
5 | 17:21.48 | 7:34.01 | 78123 | 112173
6 | 24:55.49 | 5:30.01 | 112174 | 136924
7 | 30:25.50 | 1:57.50 | 136925 | 145749
8 | 32:23.25 | 4:06.67 | 145750 | 164266
9 | 36:30.17 | 5:14.42 | 164267 | 187858
Характеристики диапазона извлечения и сообщения об ошибках
Выбранный диапазон
Имя файла G:\KIILLSS\MORTIFY - The Way of All Flesh.wav
Пиковый уровень 100.0 %
Качество диапазона 100.0 %
CRC теста 1DA9E69B
CRC копии 1DA9E69B
Копирование... OK
Ошибок не произошло
AccurateRip: сводка
Трек 1 нет в базе данных
Трек 2 нет в базе данных
Трек 3 нет в базе данных
Трек 4 нет в базе данных
Трек 5 нет в базе данных
Трек 6 нет в базе данных
Трек 7 нет в базе данных
Трек 8 нет в базе данных
Трек 9 нет в базе данных
Ни одного трека нет в базе AccurateRip
Конец отчёта
Dragon Drums
Killburn Guitars
Macabre Guitars, Bass
Mike Keyboards
Gothmog Vocals
See also: Soulskinner, Thou Art Lord, ex-Terra Tenebrae

[215.9 MB] Скачать / Download