(Black Metal) Musta Kappeli - Ei Valoa Tähän Kammioon - 2010, FLAC (image+.cue) lossless - Скачать

Жанр: Black Metal
Год издания диска: 2010
Издатель (лейбл): Primitive Reaction
Номер по каталогу: PR 027
Страна: Finland
Аудио кодек: FLAC (*.flac)
Тип рипа: image+.cue
Битрейт аудио: lossless
Продолжительность: 41:29
Источник (релизер): Рип собственный
Наличие сканов в содержимом раздачи: да
Треклист:
1. Valosta Varjoon 02:04
2. Rukous Pimeyteen 04:09
3. Palaan Pedoksi 04:15
4. Ei Valoa Tähän Kammioon 04:37
5. Kolmen Surman Aamuna 04:36
6. Kaukaisia Unia 07:27
7. Kylmään Hautaan 04:26
8. Kalmanlehto 04:45
9. Varjosta Valoon 02:21
10. Angelwings and Ravenclaws (Gehenna cover) 02:49

soundtrack, высокое качество, mp3, метал, бесплатно, трек, музыка, скачать, rock, альбом, композиции, песни, lossless, дискография, торрент, cd, альбом, torrent, download, metal, рок

 Exact Audio Copy V0.99 prebeta 5 from 4. May 2009
EAC extraction logfile from 17. September 2010, 22:44
Musta Kappeli / Ei Valoa Tahan Kammioon
Used drive : HL-DT-STDVDRAM GSA-H10N Adapter: 0 ID: 1
Read mode : Secure
Utilize accurate stream : Yes
Defeat audio cache : Yes
Make use of C2 pointers : No
Read offset correction : 667
Overread into Lead-In and Lead-Out : No
Fill up missing offset samples with silence : Yes
Delete leading and trailing silent blocks : No
Null samples used in CRC calculations : Yes
Used interface : Native Win32 interface for Win NT & 2000
Used output format : User Defined Encoder
Selected bitrate : 768 kBit/s
Quality : High
Add ID3 tag : No
Command line compressor : C:\Program Files\Exact Audio Copy\Flac\flac.exe
Additional command line options : -V -8 -T "artist=%a" -T "title=%t" -T "album=%g" -T "date=%y" -T "tracknumber=%n" -T "genre=%m" %s
TOC of the extracted CD
Track | Start | Length | Start sector | End sector
---------------------------------------------------------
1 | 0:00.00 | 2:04.34 | 0 | 9333
2 | 2:04.34 | 4:08.57 | 9334 | 27990
3 | 6:13.16 | 4:14.34 | 27991 | 47074
4 | 10:27.50 | 4:36.65 | 47075 | 67839
5 | 15:04.40 | 4:36.13 | 67840 | 88552
6 | 19:40.53 | 7:26.68 | 88553 | 122070
7 | 27:07.46 | 4:25.47 | 122071 | 141992
8 | 31:33.18 | 4:45.19 | 141993 | 163386
9 | 36:18.37 | 2:20.34 | 163387 | 173920
10 | 38:38.71 | 2:49.05 | 173921 | 186600
Range status and errors
Selected range
Filename H:\Rip\Musta Kappeli - Ei Valoa Tahan Kammioon 2010\Musta Kappeli - Ei Valoa Tahan Kammioon.wav
Peak level 100.0 %
Range quality 100.0 %
Test CRC AA3C1EE9
Copy CRC AA3C1EE9
Copy OK
No errors occurred
AccurateRip summary
Track 1 not present in database
Track 2 not present in database
Track 3 not present in database
Track 4 not present in database
Track 5 not present in database
Track 6 not present in database
Track 7 not present in database
Track 8 not present in database
Track 9 not present in database
Track 10 not present in database
None of the tracks are present in the AccurateRip database
End of status report
Molestor Kadotus - Vocals, Guitar, Drums (Anal Blasphemy, Calvarium (Fin), Trotzreich, Black Priest of Satan, Murha (Fin), Sinisterite, Suolistosairaus, Drowning the Light, Baptism (Fin))
IkiHorros - Keyboards, Female Vocals

[281.4 MB] Скачать / Download