(Black Metal) Mystic Circle - Morgenrote – Der Schrei Nach Finstrenis - 1996, FLAC (image+.cue), lossless - Скачать

Жанр: Black Metal
Год выпуска диска: 1996
Производитель диска: Germany
Аудио кодек: FLAC
Тип рипа: image+.cue
Битрейт аудио: lossless
Трэклист:
1 Mitternacht
2 Morganas Curse
3 Graveyard Dreams
4 Bloodlust (When The Wolf Awake)
5 Throne Of The Night
6 Octobermoon
7 Medina (Satans Whore)
8 Kiss From A Vampire
9 Ravens Dusk
10 Morgenrote
Доп. информация:

lossless, скачать, рок, metal, песни, бесплатно, soundtrack, метал, rock, torrent, торрент, музыка, cd, альбом, дискография, трек, mp3, высокое качество, download, композиции, альбом

Exact Audio Copy V0.99 prebeta 4 from 23. January 2008
Отчёт EAC об извлечении, выполненном 22. февраля 2009, 23:26
Mystic Circle / Morgenrote (Der Schrei nach Finsternis)
Дисковод: Optiarc DVD RW AD-7170S Adapter: 1 ID: 0
Режим чтения : Достоверность
Использование точного потока : Да
Отключение кэша аудио : Да
Использование указателей C2 : Нет
Коррекция смещения при чтении : 48
Способность читать области Lead-in и Lead-out : Нет
Заполнение пропущенных сэмплов тишиной : Да
Удаление блоков с тишиной в начале и конце : Нет
При вычислениях CRC использовались нулевые сэмплы : Да
Интерфейс : Встроенный Win32-интерфейс для Win NT/2000
Выходной формат : Внутренние WAV-операции
Формат сэмплов : 44.100 Гц; 16 бит; стерео
TOC извлечённого CD
Трек | Старт | Длительность | Начальный сектор | Конечный сектор
---------------------------------------------------------------------
1 | 0:00.00 | 0:58.44 | 0 | 4393
2 | 0:58.44 | 5:57.58 | 4394 | 31226
3 | 6:56.27 | 4:48.26 | 31227 | 52852
4 | 11:44.53 | 4:51.67 | 52853 | 74744
5 | 16:36.45 | 5:29.32 | 74745 | 99451
6 | 22:06.02 | 5:20.48 | 99452 | 123499
7 | 27:26.50 | 6:39.72 | 123500 | 153496
8 | 34:06.47 | 4:45.28 | 153497 | 174899
9 | 38:52.00 | 5:24.56 | 174900 | 199255
10 | 44:16.56 | 1:33.40 | 199256 | 206270
Характеристики диапазона извлечения и сообщения об ошибках
Выбранный диапазон
Имя файла F:\RIP\Mystic Circle - Morgenrote (Der Schrei nach Finsternis).wav
Пиковый уровень 100.0 %
Качество диапазона 100.0 %
CRC копии F66413AC
Копирование... OK
Ошибок не произошло
Конец отчёта

[339.2 MB] Скачать / Download