(Black Metal) Nåstrond (Nastrond) - From A Black Funeral Coffin - 1994 (2003 Reissue), FLAC (image+.cue) lossless - Скачать

Nåstrond (Nastrond) - From A Black Funeral Coffin
Жанр: Black Metal
Страна-производитель диска: Greece
Год издания диска: 1994 (2003 Reissue)
Издатель (лейбл): Cryptia Productions
Номер по каталогу: LCF I
Страна: Sweden
Аудио кодек: FLAC (*.flac)
Тип рипа: image+.cue
Битрейт аудио: lossless
Продолжительность: 33:20
Источник (релизер): Собственный рип
Наличие сканов в содержимом раздачи: да
Треклист:
01. Transylvanian Fullmoon [03:08]
02. From a Black Funeral Coffin [03:14]
03. Winter of Obscurity [02:39]
04. On Black Winter Thrones [06:34]
05. Shadows of the Black Ram [04:54]
06. From a Black Funeral Coffin (Second version) [03:50]
07. On Black Winter Thrones (Second version) [06:50]
08. Northern Realm of Black Frost (Second version) [01:55]

бесплатно, композиции, soundtrack, трек, download, альбом, lossless, cd, рок, скачать, rock, torrent, метал, высокое качество, mp3, дискография, музыка, альбом, metal, торрент, песни

 Exact Audio Copy V1.0 beta 1 from 15. November 2010
EAC extraction logfile from 19. January 2011, 0:42
Nastrond / From a Black Funeral Coffin
Used drive : TSSTcorpCDDVDW SH-S223F Adapter: 4 ID: 0
Read mode : Secure
Utilize accurate stream : Yes
Defeat audio cache : Yes
Make use of C2 pointers : No
Read offset correction : 6
Overread into Lead-In and Lead-Out : No
Fill up missing offset samples with silence : Yes
Delete leading and trailing silent blocks : No
Null samples used in CRC calculations : Yes
Used interface : Native Win32 interface for Win NT & 2000
Used output format : User Defined Encoder
Selected bitrate : 320 kBit/s
Quality : High
Add ID3 tag : No
Command line compressor : C:\Program Files\Exact Audio Copy\Flac\flac.exe
Additional command line options : -V -8 -T "artist=%a" -T "title=%t" -T "album=%g" -T "date=%y" -T "tracknumber=%n" -T "genre=%m" %s
TOC of the extracted CD
Track | Start | Length | Start sector | End sector
---------------------------------------------------------
1 | 0:00.00 | 3:10.49 | 0 | 14298
2 | 3:10.49 | 3:16.11 | 14299 | 29009
3 | 6:26.60 | 2:41.37 | 29010 | 41121
4 | 9:08.22 | 6:36.49 | 41122 | 70870
5 | 15:44.71 | 4:56.29 | 70871 | 93099
6 | 20:41.25 | 3:52.03 | 93100 | 110502
7 | 24:33.28 | 6:52.46 | 110503 | 141448
8 | 31:25.74 | 1:57.60 | 141449 | 150283
Range status and errors
Selected range
Filename D:\CD\Rips\Nastrond - From a Black Funeral Coffin (2003)\Nastrond - From a Black Funeral Coffin.wav
Peak level 99.9 %
Extraction speed 0.1 X
Range quality 100.0 %
Test CRC CDA90BB9
Copy CRC CDA90BB9
Copy OK
No errors occurred
AccurateRip summary
Track 1 not present in database
Track 2 not present in database
Track 3 not present in database
Track 4 not present in database
Track 5 not present in database
Track 6 not present in database
Track 7 not present in database
Track 8 not present in database
None of the tracks are present in the AccurateRip database
End of status report
==== Log checksum 27054DAAD0C2CFD83C018C6CAD5133A2896923C9416E4FF5D910742AB2E3B0E5 ====
Debut demo (with additional 3 tracks) released on CD and later on LP limited to 300 copies.
Recorded in Ragnarok Studios in 1994 and previously released in a limited edition of 666 numbered tapes. Second versions of the material was done in late 2002.
Draugr - Breath & Guitars
Arganas - Drums & Percussions

[223.3 MB] Скачать / Download