(Black Metal) Open Hell - In Gloria Aeterna Tenebrae - 2011, FLAC (image+.cue), lossless - Скачать

торрент, rock, трек, cd, песни, lossless, бесплатно, рок, музыка, torrent, soundtrack, альбом, композиции, дискография, высокое качество, метал, альбом, metal, mp3, скачать, download

1 Reborn in Realm of Darkness 04:19
2 Glorious Extermination 04:46
3 Shadows of Unholy Vengeance 06:21
4 In the Mirror of Madness 05:31
5 Funreal of Humanity 04:37
6 Destroyer of Holiness 04:27
7 Summon the Abomination 05:40

Продолжительность: 35:44
 Exact Audio Copy V1.0 beta 3 from 29. August 2011
EAC extraction logfile from 8. July 2013, 14:44
Open Hell / In Gloria Aeterna Tenebrae
Used drive : ASUS DRW-22B2S Adapter: 0 ID: 0
Read mode : Secure
Utilize accurate stream : Yes
Defeat audio cache : Yes
Make use of C2 pointers : No
Read offset correction : 6
Overread into Lead-In and Lead-Out : No
Fill up missing offset samples with silence : Yes
Delete leading and trailing silent blocks : No
Null samples used in CRC calculations : Yes
Used interface : Native Win32 interface for Win NT & 2000
Used output format : User Defined Encoder
Selected bitrate : 128 kBit/s
Quality : High
Add ID3 tag : No
Command line compressor : C:\Program Files\Exact Audio Copy\Flac\flac.exe
Additional command line options : -V -8 -T "Date=%year%" -T "Genre=%genre%" -T "Composer=%composer%" %source%
TOC of the extracted CD
Track | Start | Length | Start sector | End sector
---------------------------------------------------------
1 | 0:00.00 | 4:19.01 | 0 | 19425
2 | 4:19.01 | 4:46.51 | 19426 | 40926
3 | 9:05.52 | 6:21.23 | 40927 | 69524
4 | 15:27.00 | 5:30.73 | 69525 | 94347
5 | 20:57.73 | 4:37.36 | 94348 | 115158
6 | 25:35.34 | 4:27.51 | 115159 | 135234
7 | 30:03.10 | 5:40.45 | 135235 | 160779
Range status and errors
Selected range
Filename C:\1st0m1n\!!! ignore the ''True Metal Forum'' asshole owner - name sathus aka. ligfaerd !!!\Open Hell - In Gloria Aeterna Tenebrae.wav
Peak level 91.2 %
Extraction speed 7.4 X
Range quality 99.9 %
Test CRC 0D84046D
Copy CRC 0D84046D
Copy OK
No errors occurred
AccurateRip summary
Track 1 not present in database
Track 2 not present in database
Track 3 not present in database
Track 4 not present in database
Track 5 not present in database
Track 6 not present in database
Track 7 not present in database
None of the tracks are present in the AccurateRip database
End of status report
---- CUETools DB Plugin V2.1.5
[CTDB TOCID: _dtkUxVAvD8nq.pD7ShShdbv8nA-] found
Submit result: already submitted
Track | CTDB Status
1 | (1/1) Accurately ripped
2 | (1/1) Accurately ripped
3 | (1/1) Accurately ripped
4 | (1/1) Accurately ripped
5 | (1/1) Accurately ripped
6 | (1/1) Accurately ripped
7 | (1/1) Accurately ripped
==== Log checksum DD754E3F61BB157B0715055CF6B637098E34E417DA18B97048362EB8626B5248 ====
Выражаю отдельную благодарность ShriEkeR за сканы.

[299.3 MB] Скачать / Download