(Black Metal) Primigenium - Art of War - 1997, APE (image+.cue), lossless - Скачать

Жанр: Black Metal
Год выпуска диска: 1997
Страна: Spain
Производитель диска: Full Moon Productions (USA)
Аудио кодек: APE
Тип рипа: image+.cue
Битрейт аудио: lossless
Продолжительность: 41:49
Трэклист:
1. Ridden Into Battle (Prologue) 04:42
2. Embrace Me Darkness 04:45
3. Black Sword Of Vengeance 05:35
4. Shall The Forest Open For Us 05:01
5. Anachronism 01:16
6. ...And Jesus Wept? 07:19
7. Pact Of Solitude 04:36
8. Enemy 04:41
9. Dragon`s Tears (Epilogue) 03:54
Доп. информация:
Alhaz - Guitar, Bass
Smaug - Vocals, Guitar, Drums

композиции, metal, бесплатно, торрент, mp3, rock, метал, альбом, высокое качество, дискография, lossless, soundtrack, песни, музыка, скачать, cd, download, альбом, torrent, рок, трек

Exact Audio Copy V0.99 prebeta 1 from 25. May 2007
Отчёт EAC об извлечении, выполненном 6. августа 2009, 22:13
Primigenium / Art Of War
Дисковод: HL-DT-STDVD-RAM GH22NP20 Adapter: 0 ID: 0
Режим чтения : Достоверность
Использование точного потока : Да
Отключение кэша аудио : Да
Использование указателей C2 : Нет
Коррекция смещения при чтении : 102
Способность читать области Lead-in и Lead-out : Нет
Заполнение пропущенных сэмплов тишиной : Да
Удаление блоков с тишиной в начале и конце : Нет
Интерфейс : Встроенный Win32-интерфейс для Win NT/2000
Выходной формат : Внутренние WAV-операции
Формат сэмплов : 44.100 Гц; 16 бит; стерео
TOC извлечённого CD
Трек | Старт | Длительность | Начальный сектор | Конечный сектор
---------------------------------------------------------------------
1 | 0:00.00 | 4:42.35 | 0 | 21184
2 | 4:42.35 | 4:45.29 | 21185 | 42588
3 | 9:27.64 | 5:34.58 | 42589 | 67696
4 | 15:02.47 | 5:00.73 | 67697 | 90269
5 | 20:03.45 | 1:16.09 | 90270 | 95978
6 | 21:19.54 | 7:19.08 | 95979 | 128911
7 | 28:38.62 | 4:35.25 | 128912 | 149561
8 | 33:14.12 | 4:40.70 | 149562 | 170631
9 | 37:55.07 | 3:54.20 | 170632 | 188201
Характеристики диапазона извлечения и сообщения об ошибках
Выбранный диапазон
Имя файла C:\Documents and Settings\Администратор\Рабочий стол\Аудио\Primigenium - Art Of War.wav
Пиковый уровень 100.0 %
Качество диапазона 100.0 %
CRC копии B395CBB3
Копирование... OK
AccurateRip: сводка
Трек 1 точное извлечение (доверие 1) [37FCB1EE]
Трек 2 точное извлечение (доверие 1) [ACB5A9C3]
Трек 3 точное извлечение (доверие 1) [4ADEDE8C]
Трек 4 точное извлечение (доверие 1) [5917BB0B]
Трек 5 точное извлечение (доверие 1) [AC32E0D8]
Трек 6 точное извлечение (доверие 1) [0D87A8AE]
Трек 7 точное извлечение (доверие 1) [182BA4DA]
Трек 8 точное извлечение (доверие 1) [49FAB638]
Трек 9 точное извлечение (доверие 1) [00F62A31]
Ошибок не произошло
Конец отчёта

[319.3 MB] Скачать / Download