(Black Metal) Sacramentum - Finis malorum - 1994 (re 1995) (EP), FLAC (image+.cue), lossless - Скачать

SACRAMENTUM - Finis malorum
Жанр: Black Metal
Год издания диска: 1994 (re 1995)
Издатель (лейбл): Self-released (re Adipocere Rec)
Номер по каталогу: CD AR 023
Страна: Sweden
Аудиокодек: FLAC (*.flac)
Тип рипа: image+.cue
Битрейт аудио: lossless
Источник (релизер): original CD
Наличие сканов в содержимом раздачи: да
Треклист:
1. Moonfog 04:51
2. Travel With The Northern Winds 04:00
3. Devide et Impera 04:56
4. Pagan Fire 04:11
5. Finis Malorum 01:52
Доп. информация:SACRAMENTUM, уголь, шахта - Чорной смерти гауптвахта!

рок, rock, высокое качество, lossless, soundtrack, metal, скачать, torrent, download, альбом, бесплатно, торрент, метал, песни, mp3, композиции, альбом, трек, cd, музыка, дискография

 Exact Audio Copy V0.99 prebeta 5 from 4. May 2009
Отчёт EAC об извлечении, выполненном 29. мая 2011, 11:57
Sacramentum / Finis malorum
Дисковод: ASUS DRW-24B3ST Adapter: 3 ID: 0
Режим чтения : Достоверность
Использование точного потока : Да
Отключение кэша аудио : Да
Использование указателей C2 : Нет
Коррекция смещения при чтении : 6
Способность читать области Lead-in и Lead-out : Нет
Заполнение пропущенных сэмплов тишиной : Да
Удаление блоков с тишиной в начале и конце : Нет
При вычислениях CRC использовались нулевые сэмплы : Да
Интерфейс : Установленный внешний ASPI-интерфейс
Выходной формат : Пользовательский кодировщик
Выбранный битрейт : 768 kBit/s
Качество : Высокий
Добавление ID3-тэга : Нет
Утилита сжатия : C:\Program Files\Exact Audio Copy\FLAC\FLAC.EXE
Дополнительные параметры : -6 -V -T "ARTIST=%a" -T "TITLE=%t" -T "ALBUM=%g" -T "DATE=%y" -T "TRACKNUMBER=%n" -T "GENRE=%m" -T "COMMENT=%e" %s -o %d
TOC извлечённого CD
Трек | Старт | Длительность | Начальный сектор | Конечный сектор
---------------------------------------------------------------------
1 | 0:00.00 | 4:51.30 | 0 | 21854
2 | 4:51.30 | 4:00.50 | 21855 | 39904
3 | 8:52.05 | 4:56.35 | 39905 | 62139
4 | 13:48.40 | 4:11.55 | 62140 | 81019
5 | 18:00.20 | 1:52.20 | 81020 | 89439
Характеристики диапазона извлечения и сообщения об ошибках
Выбранный диапазон
Имя файла F:\ЯОБРАЗА\Sacramentum - Finis malorum.wav
Пиковый уровень 100.0 %
Качество диапазона 100.0 %
CRC теста 23EE6660
CRC копии 23EE6660
Копирование... OK
Ошибок не произошло
AccurateRip: сводка
Трек 1 точное извлечение (доверие 2) [8AE506B7]
Трек 2 точное извлечение (доверие 2) [144CAFE9]
Трек 3 точное извлечение (доверие 2) [1D29CE65]
Трек 4 точное извлечение (доверие 2) [EE13D461]
Трек 5 точное извлечение (доверие 2) [68C7D44B]
Все треки извлечены точно
Конец отчёта
Repressed by Adipocere Rec. in 1995

Anders Brolycke Guitars (lead)
Nisse Karlén Guitars (rhythm) / Vocals
Freddy Andersson Bass
Mikael Rydén Drums

[134.2 MB] Скачать / Download