(Black Metal) Satanic Funeral - Night of the Goat - 2006, APE (image+.cue), lossless - Скачать

Жанр: Black Metal
Год выпуска диска: 2006
Производитель диска: USA,Non Compos Mentis
Аудио кодек: APE
Тип рипа: image+.cue
Битрейт аудио: lossless
Продолжительность: Total playing time 32:22
Трэклист:
1. Night of the Goat 03:24
2. Ritual 02:16
3. A Possession to Desecrate 03:15
4. The Satanic Funeral 02:45
5. Heretic 03:39
6. Your Blood Stains My Altar 02:34
7. The Constant Loathing 03:32
8. Forever Burning in Hell 03:49
9. Burial Begins 03:33
10. Unholy Pagan Fire (Ode to Beherit) 03:41
Доп. информация:

mp3, download, скачать, рок, высокое качество, торрент, cd, soundtrack, песни, torrent, метал, rock, metal, композиции, дискография, lossless, трек, музыка, бесплатно, альбом, альбом

Exact Audio Copy V0.99 prebeta 4 from 23. January 2008
Звіт EAC про видобування, котре виконане 11. квітня 2009, 19:10
Satanic Funeral / Night of the Goat
Дисковод: HL-DT-STDVDRAM GSA-T40N Adapter: 0 ID: 0
Режим читання : Точний
Використати точний потік : Так
Вимкнути аудіо кеш : Так
Застосувати мітки C2 : Ні
Корекція зміщення при читанні : 667
Екстрачитання областей Lead-in і Lead-out : Ні
Заповнення пропущених семплів тишею : Так
Видалення блоків з тишею на початку і кінці : Ні
При вирахуванні CRC використовувались нульові семпли : Так
Використаний інтерфейс : Встановлений зовнішній ASPI-інтерфейс
Застосований вихідний формат : Внутрішні WAV-операції
Формат семпла : 44.100 Гц; 16 біт; стерео
TOC видобутого CD
Трек | Старт | Довжина | Початковий сектор | Кінцевий сектор
------------------------------------------------------------------
1 | 0:00.00 | 3:24.65 | 0 | 15364
2 | 3:24.65 | 2:16.31 | 15365 | 25595
3 | 5:41.21 | 3:15.44 | 25596 | 40264
4 | 8:56.65 | 2:45.25 | 40265 | 52664
5 | 11:42.15 | 3:39.68 | 52665 | 69157
6 | 15:22.08 | 2:34.29 | 69158 | 80736
7 | 17:56.37 | 3:32.11 | 80737 | 96647
8 | 21:28.48 | 3:49.68 | 96648 | 113890
9 | 25:18.41 | 3:33.05 | 113891 | 129870
10 | 28:51.46 | 3:41.36 | 129871 | 146481
Статус діапазону і помилки
Обраний діапазон
Ім'я файлу D:\раздачи\Satanic Funeral - Night of the Goat.wav
Піковий рівень 100.0 %
Якість діапазону 100.0 %
CRC копії DA1588F3
Копіювання... OK
Помилки не траплялися
Кінець звіту

[178.2 MB] Скачать / Download