(Black Metal) Svartpest - Коллекция (2CD) - 2003-2010, FLAC (image+.cue), lossless - Скачать

Svartpest

Жанр: Black Metal || Страна-производитель диска: USA, Italy || Лейбл: Baphomet Records, Final Earthbeat Productions
Каталог №: BAPH 115, FEP 003 || Страна: Norway || Год издания: 2003-2010 || Аудиокодек: FLAC (*.flac) || Тип рипа: image+.cue
Битрейт аудио: lossless || Продолжительность: 01:14:17 || Источник (релизер): Original CD's || Наличие сканов в содержимом раздачи: да
Треклист:

композиции, метал, rock, скачать, трек, песни, высокое качество, cd, torrent, дискография, download, бесплатно, рок, торрент, metal, lossless, альбом, музыка, mp3, soundtrack, альбом

1 Ved den Drabelige Inngang til Helvete 02:51
2 Det Stolte Norske Rike 02:32
3 I Skapelsen av det Kolde... 02:36
4 En Hyllest til Norge Vaart Land 03:08
5 I Sannhet Var 03:26
6 Drep de Harmloese 03:26
7 I Vaar Tilbakevendtes Herre Navn 03:02
8 Lokket in I Skyggens Grep 01:59
9 Den Gjeld de Har, I Blod 03:17
10 I Skogens Moerke 06:58
11 Seier 06:30
12 Med Blodstaur Skal Dei... 02:24

Продолжительность: 42:14

Лог создания рипа
 Exact Audio Copy V1.1 from 23. June 2015
EAC extraction logfile from 26. September 2015, 14:49
Svartpest / Ved den Drabelige Inngang til Helvete
Used drive : ASUS DRW-22B2S Adapter: 1 ID: 0
Read mode : Secure
Utilize accurate stream : Yes
Defeat audio cache : Yes
Make use of C2 pointers : No
Read offset correction : 6
Overread into Lead-In and Lead-Out : No
Fill up missing offset samples with silence : Yes
Delete leading and trailing silent blocks : No
Null samples used in CRC calculations : Yes
Used interface : Native Win32 interface for Win NT & 2000
Used output format : User Defined Encoder
Selected bitrate : 128 kBit/s
Quality : High
Add ID3 tag : No
Command line compressor : C:\Program Files\Exact Audio Copy\Flac\flac.exe
Additional command line options : -V -8 -T "Date=%year%" -T "Genre=%genre%" -T "Composer=%composer%" %source%
TOC of the extracted CD
Track | Start | Length | Start sector | End sector
---------------------------------------------------------
1 | 0:00.00 | 2:51.62 | 0 | 12886
2 | 2:51.62 | 2:32.00 | 12887 | 24286
3 | 5:23.62 | 2:36.07 | 24287 | 35993
4 | 7:59.69 | 3:08.29 | 35994 | 50122
5 | 11:08.23 | 3:26.21 | 50123 | 65593
6 | 14:34.44 | 3:26.44 | 65594 | 81087
7 | 18:01.13 | 3:02.22 | 81088 | 94759
8 | 21:03.35 | 1:59.61 | 94760 | 103745
9 | 23:03.21 | 3:17.51 | 103746 | 118571
10 | 26:20.72 | 6:58.33 | 118572 | 149954
11 | 33:19.30 | 6:30.17 | 149955 | 179221
12 | 39:49.47 | 2:24.37 | 179222 | 190058
Range status and errors
Selected range
Filename C:\1st0m1n\!!! Dedykuję Najpiękniejszej Polce na Całym Bezbrzeżnym Świecie !!!\Svartpest - Ved den Drabelige Inngang til Helvete.wav
Peak level 100.0 %
Extraction speed 6.9 X
Range quality 100.0 %
Test CRC C827D36A
Copy CRC C827D36A
Copy OK
No errors occurred
AccurateRip summary
Track 1 accurately ripped (confidence 1) [DCA87A3C] (AR v2)
Track 2 accurately ripped (confidence 1) [E2B6973B] (AR v2)
Track 3 accurately ripped (confidence 1) [3462B9D3] (AR v2)
Track 4 accurately ripped (confidence 1) [ABC0AA87] (AR v2)
Track 5 accurately ripped (confidence 1) [BF367607] (AR v2)
Track 6 accurately ripped (confidence 1) [2031B5DE] (AR v2)
Track 7 accurately ripped (confidence 1) [27F9651F] (AR v2)
Track 8 accurately ripped (confidence 1) [AA7FFBB5] (AR v2)
Track 9 accurately ripped (confidence 1) [91EC9B84] (AR v2)
Track 10 accurately ripped (confidence 1) [42EA2609] (AR v2)
Track 11 accurately ripped (confidence 1) [D0273AF5] (AR v2)
Track 12 accurately ripped (confidence 1) [BC7C094F] (AR v2)
All tracks accurately ripped
End of status report
---- CUETools DB Plugin V2.1.6
[CTDB TOCID: LiLMUzC62ArFZgF7nFMC1cx77aE-] found
Submit result: LiLMUzC62ArFZgF7nFMC1cx77aE- has been confirmed
Track | CTDB Status
1 | (1/1) Accurately ripped
2 | (1/1) Accurately ripped
3 | (1/1) Accurately ripped
4 | (1/1) Accurately ripped
5 | (1/1) Accurately ripped
6 | (1/1) Accurately ripped
7 | (1/1) Accurately ripped
8 | (1/1) Accurately ripped
9 | (1/1) Accurately ripped
10 | (1/1) Accurately ripped
11 | (1/1) Accurately ripped
12 | (1/1) Accurately ripped
==== Log checksum 76FA802BFE2B18A294A842C1425632BB4B4D81011300CF16D388781A92EBF5F7 ====
 Exact Audio Copy V1.1 from 23. June 2015
EAC extraction logfile from 26. September 2015, 14:49
Svartpest / Ved den Drabelige Inngang til Helvete
Used drive : ASUS DRW-22B2S Adapter: 1 ID: 0
Read mode : Secure
Utilize accurate stream : Yes
Defeat audio cache : Yes
Make use of C2 pointers : No
Read offset correction : 6
Overread into Lead-In and Lead-Out : No
Fill up missing offset samples with silence : Yes
Delete leading and trailing silent blocks : No
Null samples used in CRC calculations : Yes
Used interface : Native Win32 interface for Win NT & 2000
Used output format : User Defined Encoder
Selected bitrate : 128 kBit/s
Quality : High
Add ID3 tag : No
Command line compressor : C:\Program Files\Exact Audio Copy\Flac\flac.exe
Additional command line options : -V -8 -T "Date=%year%" -T "Genre=%genre%" -T "Composer=%composer%" %source%
TOC of the extracted CD
Track | Start | Length | Start sector | End sector
---------------------------------------------------------
1 | 0:00.00 | 2:51.62 | 0 | 12886
2 | 2:51.62 | 2:32.00 | 12887 | 24286
3 | 5:23.62 | 2:36.07 | 24287 | 35993
4 | 7:59.69 | 3:08.29 | 35994 | 50122
5 | 11:08.23 | 3:26.21 | 50123 | 65593
6 | 14:34.44 | 3:26.44 | 65594 | 81087
7 | 18:01.13 | 3:02.22 | 81088 | 94759
8 | 21:03.35 | 1:59.61 | 94760 | 103745
9 | 23:03.21 | 3:17.51 | 103746 | 118571
10 | 26:20.72 | 6:58.33 | 118572 | 149954
11 | 33:19.30 | 6:30.17 | 149955 | 179221
12 | 39:49.47 | 2:24.37 | 179222 | 190058
Range status and errors
Selected range
Filename C:\1st0m1n\!!! Dedykuję Najpiękniejszej Polce na Całym Bezbrzeżnym Świecie !!!\Svartpest - Ved den Drabelige Inngang til Helvete.wav
Peak level 100.0 %
Extraction speed 6.9 X
Range quality 100.0 %
Test CRC C827D36A
Copy CRC C827D36A
Copy OK
No errors occurred
AccurateRip summary
Track 1 accurately ripped (confidence 1) [DCA87A3C] (AR v2)
Track 2 accurately ripped (confidence 1) [E2B6973B] (AR v2)
Track 3 accurately ripped (confidence 1) [3462B9D3] (AR v2)
Track 4 accurately ripped (confidence 1) [ABC0AA87] (AR v2)
Track 5 accurately ripped (confidence 1) [BF367607] (AR v2)
Track 6 accurately ripped (confidence 1) [2031B5DE] (AR v2)
Track 7 accurately ripped (confidence 1) [27F9651F] (AR v2)
Track 8 accurately ripped (confidence 1) [AA7FFBB5] (AR v2)
Track 9 accurately ripped (confidence 1) [91EC9B84] (AR v2)
Track 10 accurately ripped (confidence 1) [42EA2609] (AR v2)
Track 11 accurately ripped (confidence 1) [D0273AF5] (AR v2)
Track 12 accurately ripped (confidence 1) [BC7C094F] (AR v2)
All tracks accurately ripped
End of status report
---- CUETools DB Plugin V2.1.6
[CTDB TOCID: LiLMUzC62ArFZgF7nFMC1cx77aE-] found
Submit result: LiLMUzC62ArFZgF7nFMC1cx77aE- has been confirmed
Track | CTDB Status
1 | (1/1) Accurately ripped
2 | (1/1) Accurately ripped
3 | (1/1) Accurately ripped
4 | (1/1) Accurately ripped
5 | (1/1) Accurately ripped
6 | (1/1) Accurately ripped
7 | (1/1) Accurately ripped
8 | (1/1) Accurately ripped
9 | (1/1) Accurately ripped
10 | (1/1) Accurately ripped
11 | (1/1) Accurately ripped
12 | (1/1) Accurately ripped
==== Log checksum 76FA802BFE2B18A294A842C1425632BB4B4D81011300CF16D388781A92EBF5F7 ====
1 Trutokt 05:53
2 Mjødfest 04:40
3 Gudekrig 04:28
4 Herje 02:52
5 Drukken 03:50
6 Ætt 04:06
7 Aske til Aske, Blod til Eld 06:14

Продолжительность: 32:03

Лог создания рипа
 Exact Audio Copy V1.1 from 23. June 2015
EAC extraction logfile from 26. September 2015, 13:46
Svartpest / Mjødfest
Used drive : ASUS DRW-22B2L b Adapter: 1 ID: 1
Read mode : Secure
Utilize accurate stream : Yes
Defeat audio cache : Yes
Make use of C2 pointers : No
Read offset correction : 6
Overread into Lead-In and Lead-Out : No
Fill up missing offset samples with silence : Yes
Delete leading and trailing silent blocks : No
Null samples used in CRC calculations : Yes
Used interface : Native Win32 interface for Win NT & 2000
Used output format : User Defined Encoder
Selected bitrate : 128 kBit/s
Quality : High
Add ID3 tag : No
Command line compressor : C:\Program Files\Exact Audio Copy\Flac\flac.exe
Additional command line options : -V -8 -T "Date=%year%" -T "Genre=%genre%" -T "Composer=%composer%" %source%
TOC of the extracted CD
Track | Start | Length | Start sector | End sector
---------------------------------------------------------
1 | 0:00.00 | 5:52.73 | 0 | 26472
2 | 5:52.73 | 4:40.35 | 26473 | 47507
3 | 10:33.33 | 4:28.11 | 47508 | 67618
4 | 15:01.44 | 2:52.02 | 67619 | 80520
5 | 17:53.46 | 3:49.63 | 80521 | 97758
6 | 21:43.34 | 4:06.04 | 97759 | 116212
7 | 25:49.38 | 6:13.44 | 116213 | 144231
Range status and errors
Selected range
Filename C:\1st0m1n\!!! Dedykuję Najpiękniejszej Polce na Całym Bezbrzeżnym Świecie !!!\Svartpest - Mjødfest.wav
Peak level 100.0 %
Extraction speed 2.8 X
Range quality 100.0 %
Test CRC 373539EB
Copy CRC 373539EB
Copy OK
No errors occurred
AccurateRip summary
Track 1 accurately ripped (confidence 1) [8D3720DB] (AR v2)
Track 2 accurately ripped (confidence 1) [1F714FB3] (AR v2)
Track 3 accurately ripped (confidence 1) [EF047E4E] (AR v2)
Track 4 accurately ripped (confidence 1) [7281628A] (AR v2)
Track 5 accurately ripped (confidence 1) [4A0B334D] (AR v2)
Track 6 accurately ripped (confidence 1) [AAD317E5] (AR v2)
Track 7 accurately ripped (confidence 1) [F2556CBA] (AR v2)
All tracks accurately ripped
End of status report
---- CUETools DB Plugin V2.1.6
[CTDB TOCID: PNlBB7y4d7CWDhz0Su8QeYKkXVU-] disk not present in database
Submit result: PNlBB7y4d7CWDhz0Su8QeYKkXVU- has been uploaded
==== Log checksum 8E23771CACD629A33B97382FB05ED9FDD5DE9DB6C1CEE11AC12D1D261FB23238 ====
 Exact Audio Copy V1.1 from 23. June 2015
EAC extraction logfile from 26. September 2015, 13:46
Svartpest / Mjødfest
Used drive : ASUS DRW-22B2L b Adapter: 1 ID: 1
Read mode : Secure
Utilize accurate stream : Yes
Defeat audio cache : Yes
Make use of C2 pointers : No
Read offset correction : 6
Overread into Lead-In and Lead-Out : No
Fill up missing offset samples with silence : Yes
Delete leading and trailing silent blocks : No
Null samples used in CRC calculations : Yes
Used interface : Native Win32 interface for Win NT & 2000
Used output format : User Defined Encoder
Selected bitrate : 128 kBit/s
Quality : High
Add ID3 tag : No
Command line compressor : C:\Program Files\Exact Audio Copy\Flac\flac.exe
Additional command line options : -V -8 -T "Date=%year%" -T "Genre=%genre%" -T "Composer=%composer%" %source%
TOC of the extracted CD
Track | Start | Length | Start sector | End sector
---------------------------------------------------------
1 | 0:00.00 | 5:52.73 | 0 | 26472
2 | 5:52.73 | 4:40.35 | 26473 | 47507
3 | 10:33.33 | 4:28.11 | 47508 | 67618
4 | 15:01.44 | 2:52.02 | 67619 | 80520
5 | 17:53.46 | 3:49.63 | 80521 | 97758
6 | 21:43.34 | 4:06.04 | 97759 | 116212
7 | 25:49.38 | 6:13.44 | 116213 | 144231
Range status and errors
Selected range
Filename C:\1st0m1n\!!! Dedykuję Najpiękniejszej Polce na Całym Bezbrzeżnym Świecie !!!\Svartpest - Mjødfest.wav
Peak level 100.0 %
Extraction speed 2.8 X
Range quality 100.0 %
Test CRC 373539EB
Copy CRC 373539EB
Copy OK
No errors occurred
AccurateRip summary
Track 1 accurately ripped (confidence 1) [8D3720DB] (AR v2)
Track 2 accurately ripped (confidence 1) [1F714FB3] (AR v2)
Track 3 accurately ripped (confidence 1) [EF047E4E] (AR v2)
Track 4 accurately ripped (confidence 1) [7281628A] (AR v2)
Track 5 accurately ripped (confidence 1) [4A0B334D] (AR v2)
Track 6 accurately ripped (confidence 1) [AAD317E5] (AR v2)
Track 7 accurately ripped (confidence 1) [F2556CBA] (AR v2)
All tracks accurately ripped
End of status report
---- CUETools DB Plugin V2.1.6
[CTDB TOCID: PNlBB7y4d7CWDhz0Su8QeYKkXVU-] disk not present in database
Submit result: PNlBB7y4d7CWDhz0Su8QeYKkXVU- has been uploaded
==== Log checksum 8E23771CACD629A33B97382FB05ED9FDD5DE9DB6C1CEE11AC12D1D261FB23238 ====

[481.9 MB] Скачать / Download