(Black metal) Tartaros - The Red Jewel (one-man black metal project Charmand Grimloch ) - 1999, APE (image+.cue), lossless - Скачать

Жанр: Black metal
Год выпуска диска: 1999
Страна: Norway
Аудио кодек: APE
Тип рипа: image+.cue
Битрейт аудио: lossless
Продолжительность: 40:35

Трэклист:
01. The Lamentable Sonata (Intro) (2:17)
02. The Ruby Mine (5:52)
03. A Shape In Fair Disguise (4:33)
04. Storm Of Terror (5:25)
05. Into The Faculty Of Wonderful Secrets (4:47)
06. The Red Jewel (5:03)
07. The Intense Domain Of Grievousness (5:12)
08. The 5th And The Hysteric (7:27)

Состав:
Charmand Grimloch - Vocals/Guitar/Bass/Keyboards (Emperor, The Thrill, Souls Domain)
Trym Torson (Kai Johnny Mosaker) - Session Drums (Emperor, Zyklon, Imperium (Nor), Enslaved (Nor), Shadow Season, Paganize, Ceremony)

Encyclopaedia Metallum

метал, высокое качество, бесплатно, композиции, mp3, альбом, рок, lossless, download, трек, rock, дискография, metal, музыка, альбом, torrent, торрент, песни, soundtrack, cd, скачать

 Exact Audio Copy V0.99 prebeta 4 from 23. January 2008
Отчёт EAC об извлечении, выполненном 3. апреля 2009, 11:15
Tartaros / The Red Jewel
Дисковод: MATSHITADVD-RAM UJ-850S Adapter: 1 ID: 1
Режим чтения : Достоверность
Использование точного потока : Да
Отключение кэша аудио : Да
Использование указателей C2 : Нет
Коррекция смещения при чтении : 102
Способность читать области Lead-in и Lead-out : Нет
Заполнение пропущенных сэмплов тишиной : Да
Удаление блоков с тишиной в начале и конце : Нет
При вычислениях CRC использовались нулевые сэмплы : Да
Интерфейс : Установленный внешний ASPI-интерфейс
Выходной формат : Monkey's Audio (без потерь)
Выбранный битрейт : High Lossless Compression
Качество : Высокий
Добавление ID3-тэга : Нет
Утилита сжатия : C:\Program Files\Monkey's Audio\MAC.exe
TOC извлечённого CD
Трек | Старт | Длительность | Начальный сектор | Конечный сектор
---------------------------------------------------------------------
1 | 0:00.00 | 2:17.13 | 0 | 10287
2 | 2:17.13 | 5:51.58 | 10288 | 36670
3 | 8:08.71 | 4:33.00 | 36671 | 57145
4 | 12:41.71 | 5:25.06 | 57146 | 81526
5 | 18:07.02 | 4:46.58 | 81527 | 103034
6 | 22:53.60 | 5:02.39 | 103035 | 125723
7 | 27:56.24 | 5:12.02 | 125724 | 149125
8 | 33:08.26 | 7:26.49 | 149126 | 182624
Характеристики диапазона извлечения и сообщения об ошибках
Выбранный диапазон
Имя файла H:\music from Worlock\Tartaros\Tartaros - The Red Jewel.wav
Пиковый уровень 100.0 %
Качество диапазона 99.9 %
CRC копии 1A256D67
Копирование... OK
Ошибок не произошло
AccurateRip: сводка
Трек 1 точное извлечение (доверие 4) [8EC03F02]
Трек 2 точное извлечение (доверие 4) [DBE438B4]
Трек 3 точное извлечение (доверие 4) [74AAA65A]
Трек 4 точное извлечение (доверие 4) [D198C4AD]
Трек 5 точное извлечение (доверие 4) [82DC22DD]
Трек 6 точное извлечение (доверие 4) [2993B536]
Трек 7 точное извлечение (доверие 4) [A02C0F29]
Трек 8 точное извлечение (доверие 4) [FD95B65F]
Все треки извлечены точно
Конец отчёта

[319.9 MB] Скачать / Download