(Black Metal) Uhriristi - Коллекция (2CD) - 2013-2015, FLAC (image+.cue), lossless - Скачать

Uhriristi

Жанр: Black Metal || Страна-производитель диска: France || Издатель (лейбл): Mortis Humanae Productions
Каталог №: MHP030, MHP039 || Страна: Finland || Год издания: 2013-2015 || Аудиокодек: FLAC (*.flac) || Тип рипа: image+.cue
Битрейт аудио: lossless || Продолжительность: 01:23:30 || Источник (релизер): Original CD's || Наличие сканов в содержимом раздачи: да
Треклист:

трек, торрент, высокое качество, метал, дискография, torrent, альбом, mp3, рок, download, музыка, композиции, metal, cd, альбом, rock, песни, lossless, скачать, soundtrack, бесплатно

1 Johdatus 00:57
2 Verikirkko 04:03
3 Kuolema Jumalalle 05:12
4 Pyhä Huora 06:13
5 Kadotus 07:31
6 Saatanan Seurakunta 03:58
7 Uhritulet 03:34
8 Maailma Palaa 07:26
9 Maa, Tuli ja Henki 05:24

Продолжительность: 44:38

Лог создания рипа
 Exact Audio Copy V1.1 from 23. June 2015
EAC extraction logfile from 11. September 2016, 20:54
Uhriristi / Maailma Palaa
Used drive : ASUS DRW-22B2L b Adapter: 1 ID: 1
Read mode : Secure
Utilize accurate stream : Yes
Defeat audio cache : Yes
Make use of C2 pointers : No
Read offset correction : 6
Overread into Lead-In and Lead-Out : No
Fill up missing offset samples with silence : Yes
Delete leading and trailing silent blocks : No
Null samples used in CRC calculations : Yes
Used interface : Native Win32 interface for Win NT & 2000
Used output format : User Defined Encoder
Selected bitrate : 128 kBit/s
Quality : High
Add ID3 tag : No
Command line compressor : C:\Program Files\Exact Audio Copy\Flac\flac.exe
Additional command line options : -V -8 -T "Date=%year%" -T "Genre=%genre%" -T "Composer=%composer%" %source%
TOC of the extracted CD
Track | Start | Length | Start sector | End sector
---------------------------------------------------------
1 | 0:00.00 | 0:59.42 | 0 | 4466
2 | 0:59.42 | 4:05.04 | 4467 | 22845
3 | 5:04.46 | 5:14.56 | 22846 | 46451
4 | 10:19.27 | 6:15.37 | 46452 | 74613
5 | 16:34.64 | 7:33.23 | 74614 | 108611
6 | 24:08.12 | 4:00.65 | 108612 | 126676
7 | 28:09.02 | 3:36.28 | 126677 | 142904
8 | 31:45.30 | 7:28.04 | 142905 | 176508
9 | 39:13.34 | 5:24.14 | 176509 | 200822
Range status and errors
Selected range
Filename C:\1st0m1n\!!! Special for sothis718 (Birthday Gift) !!!\Uhriristi - Maailma Palaa.wav
Peak level 100.0 %
Extraction speed 2.9 X
Range quality 100.0 %
Test CRC A3C8BD14
Copy CRC A3C8BD14
Copy OK
No errors occurred
AccurateRip summary
Track 1 not present in database
Track 2 not present in database
Track 3 not present in database
Track 4 not present in database
Track 5 not present in database
Track 6 not present in database
Track 7 not present in database
Track 8 not present in database
Track 9 not present in database
None of the tracks are present in the AccurateRip database
End of status report
---- AcoustID Plugin V1.2.0
Total fingerprints: 9
---- CUETools DB Plugin V2.1.6
[CTDB TOCID: OODOq6wLr9GfxCPWsRGWVpQwdMg-] found
Submit result: already submitted
Track | CTDB Status
1 | (1/1) Accurately ripped
2 | (1/1) Accurately ripped
3 | (1/1) Accurately ripped
4 | (1/1) Accurately ripped
5 | (1/1) Accurately ripped
6 | (1/1) Accurately ripped
7 | (1/1) Accurately ripped
8 | (1/1) Accurately ripped
9 | (1/1) Accurately ripped
==== Log checksum 6A7F77B196652B516AD386E28884BE619272DC752865613A1551941CB8D5C1A7 ====
 Exact Audio Copy V1.1 from 23. June 2015
EAC extraction logfile from 11. September 2016, 20:54
Uhriristi / Maailma Palaa
Used drive : ASUS DRW-22B2L b Adapter: 1 ID: 1
Read mode : Secure
Utilize accurate stream : Yes
Defeat audio cache : Yes
Make use of C2 pointers : No
Read offset correction : 6
Overread into Lead-In and Lead-Out : No
Fill up missing offset samples with silence : Yes
Delete leading and trailing silent blocks : No
Null samples used in CRC calculations : Yes
Used interface : Native Win32 interface for Win NT & 2000
Used output format : User Defined Encoder
Selected bitrate : 128 kBit/s
Quality : High
Add ID3 tag : No
Command line compressor : C:\Program Files\Exact Audio Copy\Flac\flac.exe
Additional command line options : -V -8 -T "Date=%year%" -T "Genre=%genre%" -T "Composer=%composer%" %source%
TOC of the extracted CD
Track | Start | Length | Start sector | End sector
---------------------------------------------------------
1 | 0:00.00 | 0:59.42 | 0 | 4466
2 | 0:59.42 | 4:05.04 | 4467 | 22845
3 | 5:04.46 | 5:14.56 | 22846 | 46451
4 | 10:19.27 | 6:15.37 | 46452 | 74613
5 | 16:34.64 | 7:33.23 | 74614 | 108611
6 | 24:08.12 | 4:00.65 | 108612 | 126676
7 | 28:09.02 | 3:36.28 | 126677 | 142904
8 | 31:45.30 | 7:28.04 | 142905 | 176508
9 | 39:13.34 | 5:24.14 | 176509 | 200822
Range status and errors
Selected range
Filename C:\1st0m1n\!!! Special for sothis718 (Birthday Gift) !!!\Uhriristi - Maailma Palaa.wav
Peak level 100.0 %
Extraction speed 2.9 X
Range quality 100.0 %
Test CRC A3C8BD14
Copy CRC A3C8BD14
Copy OK
No errors occurred
AccurateRip summary
Track 1 not present in database
Track 2 not present in database
Track 3 not present in database
Track 4 not present in database
Track 5 not present in database
Track 6 not present in database
Track 7 not present in database
Track 8 not present in database
Track 9 not present in database
None of the tracks are present in the AccurateRip database
End of status report
---- AcoustID Plugin V1.2.0
Total fingerprints: 9
---- CUETools DB Plugin V2.1.6
[CTDB TOCID: OODOq6wLr9GfxCPWsRGWVpQwdMg-] found
Submit result: already submitted
Track | CTDB Status
1 | (1/1) Accurately ripped
2 | (1/1) Accurately ripped
3 | (1/1) Accurately ripped
4 | (1/1) Accurately ripped
5 | (1/1) Accurately ripped
6 | (1/1) Accurately ripped
7 | (1/1) Accurately ripped
8 | (1/1) Accurately ripped
9 | (1/1) Accurately ripped
==== Log checksum 6A7F77B196652B516AD386E28884BE619272DC752865613A1551941CB8D5C1A7 ====
1 Kaivo 04:25
2 Routahauta 05:03
3 Haudankylmä 04:13
4 Kaamokseen 06:22
5 Synnin Virsi 03:22
6 Rukous Kuolevan 04:11
7 Tyhjyyteen Katoaa 05:00
8 Verjvala 06:13

Продолжительность: 38:52

Лог создания рипа
 Exact Audio Copy V1.1 from 23. June 2015
EAC extraction logfile from 11. September 2016, 21:55
Uhriristi / Haudankylmä
Used drive : ASUS DRW-22B2L b Adapter: 1 ID: 1
Read mode : Secure
Utilize accurate stream : Yes
Defeat audio cache : Yes
Make use of C2 pointers : No
Read offset correction : 6
Overread into Lead-In and Lead-Out : No
Fill up missing offset samples with silence : Yes
Delete leading and trailing silent blocks : No
Null samples used in CRC calculations : Yes
Used interface : Native Win32 interface for Win NT & 2000
Used output format : User Defined Encoder
Selected bitrate : 128 kBit/s
Quality : High
Add ID3 tag : No
Command line compressor : C:\Program Files\Exact Audio Copy\Flac\flac.exe
Additional command line options : -V -8 -T "Date=%year%" -T "Genre=%genre%" -T "Composer=%composer%" %source%
TOC of the extracted CD
Track | Start | Length | Start sector | End sector
---------------------------------------------------------
1 | 0:00.00 | 4:25.56 | 0 | 19930
2 | 4:25.56 | 5:03.21 | 19931 | 42676
3 | 9:29.02 | 4:13.26 | 42677 | 61677
4 | 13:42.28 | 6:22.27 | 61678 | 90354
5 | 20:04.55 | 3:22.02 | 90355 | 105506
6 | 23:26.57 | 4:11.67 | 105507 | 124398
7 | 27:38.49 | 5:00.18 | 124399 | 146916
8 | 32:38.67 | 6:13.02 | 146917 | 174893
Range status and errors
Selected range
Filename C:\1st0m1n\!!! Special for sothis718 (Birthday Gift) !!!\Uhriristi - Haudankylmä.wav
Peak level 96.6 %
Extraction speed 2.9 X
Range quality 100.0 %
Test CRC D9E2275E
Copy CRC D9E2275E
Copy OK
No errors occurred
AccurateRip summary
Track 1 not present in database
Track 2 not present in database
Track 3 not present in database
Track 4 not present in database
Track 5 not present in database
Track 6 not present in database
Track 7 not present in database
Track 8 not present in database
None of the tracks are present in the AccurateRip database
End of status report
---- AcoustID Plugin V1.2.0
Total fingerprints: 8
---- CUETools DB Plugin V2.1.6
[CTDB TOCID: 0oVwiS74qbzosnFDBatk9pNFvIQ-] found
Submit result: 0oVwiS74qbzosnFDBatk9pNFvIQ- has been confirmed
Track | CTDB Status
1 | (2/2) Accurately ripped
2 | (2/2) Accurately ripped
3 | (2/2) Accurately ripped
4 | (2/2) Accurately ripped
5 | (2/2) Accurately ripped
6 | (2/2) Accurately ripped
7 | (2/2) Accurately ripped
8 | (2/2) Accurately ripped
==== Log checksum B61BB3F92B67F0F9364FC62D46FBC3E237A32C154198D664E1470923393F8FD3 ====
 Exact Audio Copy V1.1 from 23. June 2015
EAC extraction logfile from 11. September 2016, 21:55
Uhriristi / Haudankylmä
Used drive : ASUS DRW-22B2L b Adapter: 1 ID: 1
Read mode : Secure
Utilize accurate stream : Yes
Defeat audio cache : Yes
Make use of C2 pointers : No
Read offset correction : 6
Overread into Lead-In and Lead-Out : No
Fill up missing offset samples with silence : Yes
Delete leading and trailing silent blocks : No
Null samples used in CRC calculations : Yes
Used interface : Native Win32 interface for Win NT & 2000
Used output format : User Defined Encoder
Selected bitrate : 128 kBit/s
Quality : High
Add ID3 tag : No
Command line compressor : C:\Program Files\Exact Audio Copy\Flac\flac.exe
Additional command line options : -V -8 -T "Date=%year%" -T "Genre=%genre%" -T "Composer=%composer%" %source%
TOC of the extracted CD
Track | Start | Length | Start sector | End sector
---------------------------------------------------------
1 | 0:00.00 | 4:25.56 | 0 | 19930
2 | 4:25.56 | 5:03.21 | 19931 | 42676
3 | 9:29.02 | 4:13.26 | 42677 | 61677
4 | 13:42.28 | 6:22.27 | 61678 | 90354
5 | 20:04.55 | 3:22.02 | 90355 | 105506
6 | 23:26.57 | 4:11.67 | 105507 | 124398
7 | 27:38.49 | 5:00.18 | 124399 | 146916
8 | 32:38.67 | 6:13.02 | 146917 | 174893
Range status and errors
Selected range
Filename C:\1st0m1n\!!! Special for sothis718 (Birthday Gift) !!!\Uhriristi - Haudankylmä.wav
Peak level 96.6 %
Extraction speed 2.9 X
Range quality 100.0 %
Test CRC D9E2275E
Copy CRC D9E2275E
Copy OK
No errors occurred
AccurateRip summary
Track 1 not present in database
Track 2 not present in database
Track 3 not present in database
Track 4 not present in database
Track 5 not present in database
Track 6 not present in database
Track 7 not present in database
Track 8 not present in database
None of the tracks are present in the AccurateRip database
End of status report
---- AcoustID Plugin V1.2.0
Total fingerprints: 8
---- CUETools DB Plugin V2.1.6
[CTDB TOCID: 0oVwiS74qbzosnFDBatk9pNFvIQ-] found
Submit result: 0oVwiS74qbzosnFDBatk9pNFvIQ- has been confirmed
Track | CTDB Status
1 | (2/2) Accurately ripped
2 | (2/2) Accurately ripped
3 | (2/2) Accurately ripped
4 | (2/2) Accurately ripped
5 | (2/2) Accurately ripped
6 | (2/2) Accurately ripped
7 | (2/2) Accurately ripped
8 | (2/2) Accurately ripped
==== Log checksum B61BB3F92B67F0F9364FC62D46FBC3E237A32C154198D664E1470923393F8FD3 ====

[633.8 MB] Скачать / Download