(Black Metal) Undivine Essence & Nature's Elements (Split) - 2010, FLAC (image+.cue) lossless - Скачать

Жанр: Black Metal
Страна-производитель: Israel
Год издания диска: 2010
Издатель: Gem (Holon) & Luna & Eshel (Tel Aviv) Studios
Страна: Israel
Аудио кодек: FLAC (*.flac)
Тип рипа: image+.cue
Битрейт аудио: lossless
Продолжительность: 32:10
Источник (релизер): Подарок от Nature's Elements. Собственный рип.
Наличие сканов в содержимом раздачи: да
Треклист:
01 - Crimson Sky (Undivine Essence) [10:50]
02 - New Shape (Undivine Essence) [04:26]
03 - Untitled 16 (Nature's Elements) [02:12]
04 - I.P.O.S. (Nature's Elements) [06:52]
05 - Odhin (Nature's Elements) [07:50]

бесплатно, торрент, песни, lossless, дискография, метал, альбом, альбом, rock, композиции, скачать, трек, metal, рок, высокое качество, soundtrack, cd, mp3, download, музыка, torrent

Совместный сплит Nature's Elements с еще одной группой из Израиля "Undivine Essence".

Nature's Elements:
Mike - Vocals
Dave - Guitar
Vual - Guitar
Sitri - Bass (previously guitar) (Anora Dimentia)
Phenex - Drums (Anora Dimentia)
Undivine Essence:
Shay - Guitar, Bass (former)
Mike Sandman - Vocals
Ronnie - bass (2010-)
 Exact Audio Copy V0.99 prebeta 5 from 4. May 2009
EAC extraction logfile from 6. October 2010, 11:37
Various / Nature's Elements VS Undivine Essence (Split)
Used drive : Optiarc DVD RW AD-7201A Adapter: 0 ID: 1
Read mode : Secure
Utilize accurate stream : Yes
Defeat audio cache : Yes
Make use of C2 pointers : No
Read offset correction : 48
Overread into Lead-In and Lead-Out : No
Fill up missing offset samples with silence : Yes
Delete leading and trailing silent blocks : No
Null samples used in CRC calculations : Yes
Used interface : Native Win32 interface for Win NT & 2000
Used output format : User Defined Encoder
Selected bitrate : 128 kBit/s
Quality : High
Add ID3 tag : No
Command line compressor : C:\Program Files\Exact Audio Copy\Flac\flac.exe
Additional command line options : -T "ARTIST=%a" -T "TITLE=%t" -T "ALBUM=%g" -T "DATE=%y" -T "GENRE=%m" -8 -V %s
TOC of the extracted CD
Track | Start | Length | Start sector | End sector
---------------------------------------------------------
1 | 0:00.00 | 10:50.00 | 0 | 48749
2 | 10:50.00 | 4:26.00 | 48750 | 68699
3 | 15:16.00 | 2:12.00 | 68700 | 78599
4 | 17:28.00 | 6:52.00 | 78600 | 109499
5 | 24:20.00 | 7:50.00 | 109500 | 144749
Range status and errors
Selected range
Filename D:\Музыка\Nature's Elements\Various - Nature's Elements VS Undivine Essence (Split).wav
Peak level 97.2 %
Range quality 100.0 %
Copy CRC 59BAD0BE
Copy OK
No errors occurred
AccurateRip summary
Track 1 not present in database
Track 2 not present in database
Track 3 not present in database
Track 4 not present in database
Track 5 not present in database
None of the tracks are present in the AccurateRip database
End of status report

[223.6 MB] Скачать / Download